Subcategories

Helge Lien Trio - To The Little Radio (2006) {Japanese Pressing}

Posted By: tiburon
Helge Lien Trio - To The Little Radio (2006) {Japanese Pressing}

Helge Lien Trio - To The Little Radio (2006) {Japanese Pressing}
X Lossless Decoder | FLAC tracks | Cue+Log+M3U | Full Scans 300dpi | 292MB + 5% Recovery
MP3 CBR 320 Kbps | 133MB + 5% Recovery
Genre: Jazz, Post-Bop
Helge Lien Trio - To The Little Radio (2006) {Japanese Pressing}

To The Little Radio, which features interpretations of standards, and Live, which is based mostly on Lien originals, both present the trio on strong form. The 11 non-original pieces explored on this disc were recorded in Oslo last January, and showcase the trio's collective approach to standards. On the first piece, Lasse Färnlöf's "Grandfather's Waltz," Lien's harmonies reference Bill Evans' version. Jerome Kern's "Look For The Silver Lining" and Billy Strayhorn's "Chelsea Bridge" foreground the trio's by now intuitive interplay and, though minimalist, get deep into the essence of the melodies.
Track List
01. Grandfathers Waltz 5:11
02. Look For The Silver Lining 5:12
03. Chelsea Bridge 4:12
04. Little Sunflower 5:31
05. Penelope 6:09
06. Ida Lupino 5:29
07. So In Love 4:41
08. Love Song 4:36
09. Amapola 3:59
10. Sonor 5:25
11. To The Little Radio 6:44

musicians
Helge Lien - piano
Frode Berg - acoustic bass
Knut Aalefjær - drums, percussion

Produced by Helge Lien Trio and Takashi Yamamoto


X Lossless Decoder version 20120609 (141.0)

XLD extraction logfile from 2012-06-25 12:44:46 +0300

Helge Lien Trio / To The Little Radio

Used drive : HL-DT-ST DVDRW GS21N (revision SA18)

Ripper mode : CDParanoia III 10.2
Disable audio cache : OK for the drive with a cache less than 2750KiB
Make use of C2 pointers : NO
Read offset correction : 667
Max retry count : 100
Gap status : Analyzed, Appended

TOC of the extracted CD
Track | Start | Length | Start sector | End sector
––––––––––––––––––––––––––––-
1 | 00:00:00 | 05:13:58 | 0 | 23532
2 | 05:13:58 | 05:16:56 | 23533 | 47288
3 | 10:30:39 | 04:19:20 | 47289 | 66733
4 | 14:49:59 | 05:39:05 | 66734 | 92163
5 | 20:28:64 | 06:14:06 | 92164 | 120219
6 | 26:42:70 | 05:35:28 | 120220 | 145372
7 | 32:18:23 | 04:47:31 | 145373 | 166928
8 | 37:05:54 | 04:42:51 | 166929 | 188129
9 | 41:48:30 | 04:03:52 | 188130 | 206406
10 | 45:52:07 | 05:30:27 | 206407 | 231183
11 | 51:22:34 | 06:44:37 | 231184 | 261520

AccurateRip Summary (DiscID: 0017a4ac-00cceb41-7d0d9e0b)
Track 01 : OK (v1+v2, confidence 11/11)
Track 02 : OK (v1+v2, confidence 11/11)
Track 03 : OK (v1+v2, confidence 11/11)
Track 04 : OK (v1+v2, confidence 11/11)
Track 05 : OK (v1+v2, confidence 11/11)
Track 06 : OK (v1+v2, confidence 11/11)
Track 07 : OK (v1+v2, confidence 11/11)
Track 08 : OK (v1+v2, confidence 11/11)
Track 09 : OK (v1+v2, confidence 11/11)
Track 10 : OK (v1+v2, confidence 11/11)
Track 11 : OK (v1+v2, confidence 10/10)
->All tracks accurately ripped.

All Tracks
Album gain : 0.11 dB
Peak : 0.986420
Statistics
Read error : 0
Skipped (treated as error) : 0
Edge jitter error (maybe fixed) : 0
Atom jitter error (maybe fixed) : 0
Drift error (maybe fixed) : 0
Dropped bytes error (maybe fixed) : 0
Duplicated bytes error (maybe fixed) : 0

Track 01
Filename : /Volumes/System2/Helge Lien Trio - To The little Radio/xld/01 Helge Lien Trio - Grandfathers Waltz.flac
Pre-gap length : 00:02:00

Track gain : -0.74 dB
Peak : 0.986420
CRC32 hash (test run) : 30F84075
CRC32 hash : 30F84075
CRC32 hash (skip zero) : 8B85EFE7
AccurateRip v1 signature : CD58C316
AccurateRip v2 signature : E785A028
->Accurately ripped (v1+v2, confidence 9+2/11)
Statistics
Read error : 0
Skipped (treated as error) : 0
Edge jitter error (maybe fixed) : 0
Atom jitter error (maybe fixed) : 0
Drift error (maybe fixed) : 0
Dropped bytes error (maybe fixed) : 0
Duplicated bytes error (maybe fixed) : 0
Inconsistency in error sectors : 0

Track 02
Filename : /Volumes/System2/Helge Lien Trio - To The little Radio/xld/02 Helge Lien Trio - Look For The Silver Lining.flac
Pre-gap length : 00:02:03

Track gain : 0.75 dB
Peak : 0.890900
CRC32 hash (test run) : D182327E
CRC32 hash : D182327E
CRC32 hash (skip zero) : E50B47B1
AccurateRip v1 signature : 5ECCA5E5
AccurateRip v2 signature : 7304AEDE
->Accurately ripped (v1+v2, confidence 9+2/11)
Statistics
Read error : 0
Skipped (treated as error) : 0
Edge jitter error (maybe fixed) : 0
Atom jitter error (maybe fixed) : 0
Drift error (maybe fixed) : 0
Dropped bytes error (maybe fixed) : 0
Duplicated bytes error (maybe fixed) : 0
Inconsistency in error sectors : 0

Track 03
Filename : /Volumes/System2/Helge Lien Trio - To The little Radio/xld/03 Helge Lien Trio - Chelsea Bridge.flac
Pre-gap length : 00:04:03

Track gain : 2.49 dB
Peak : 0.754181
CRC32 hash (test run) : C818E62B
CRC32 hash : C818E62B
CRC32 hash (skip zero) : AE7CD379
AccurateRip v1 signature : 0F931BB2
AccurateRip v2 signature : AD864B1B
->Accurately ripped (v1+v2, confidence 9+2/11)
Statistics
Read error : 0
Skipped (treated as error) : 0
Edge jitter error (maybe fixed) : 0
Atom jitter error (maybe fixed) : 0
Drift error (maybe fixed) : 0
Dropped bytes error (maybe fixed) : 0
Duplicated bytes error (maybe fixed) : 0
Inconsistency in error sectors : 0

Track 04
Filename : /Volumes/System2/Helge Lien Trio - To The little Radio/xld/04 Helge Lien Trio - Little Sunflower.flac
Pre-gap length : 00:06:66

Track gain : 1.80 dB
Peak : 0.968567
CRC32 hash (test run) : 205D9911
CRC32 hash : 205D9911
CRC32 hash (skip zero) : E9771AD4
AccurateRip v1 signature : 64AA30C7
AccurateRip v2 signature : 876ACFBF
->Accurately ripped (v1+v2, confidence 9+2/11)
Statistics
Read error : 0
Skipped (treated as error) : 0
Edge jitter error (maybe fixed) : 0
Atom jitter error (maybe fixed) : 0
Drift error (maybe fixed) : 0
Dropped bytes error (maybe fixed) : 0
Duplicated bytes error (maybe fixed) : 0
Inconsistency in error sectors : 0

Track 05
Filename : /Volumes/System2/Helge Lien Trio - To The little Radio/xld/05 Helge Lien Trio - Penelope.flac
Pre-gap length : 00:08:02

Track gain : -0.31 dB
Peak : 0.933899
CRC32 hash (test run) : F34C8214
CRC32 hash : F34C8214
CRC32 hash (skip zero) : 6AB63BFC
AccurateRip v1 signature : 338657A3
AccurateRip v2 signature : 3E97AEC2
->Accurately ripped (v1+v2, confidence 9+2/11)
Statistics
Read error : 0
Skipped (treated as error) : 0
Edge jitter error (maybe fixed) : 0
Atom jitter error (maybe fixed) : 0
Drift error (maybe fixed) : 0
Dropped bytes error (maybe fixed) : 0
Duplicated bytes error (maybe fixed) : 0
Inconsistency in error sectors : 0

Track 06
Filename : /Volumes/System2/Helge Lien Trio - To The little Radio/xld/06 Helge Lien Trio - Ida Lupino.flac
Pre-gap length : 00:04:08

Track gain : 2.19 dB
Peak : 0.869751
CRC32 hash (test run) : 4B3F2EDF
CRC32 hash : 4B3F2EDF
CRC32 hash (skip zero) : 9E54D795
AccurateRip v1 signature : 737076B4
AccurateRip v2 signature : D8393014
->Accurately ripped (v1+v2, confidence 9+2/11)
Statistics
Read error : 0
Skipped (treated as error) : 0
Edge jitter error (maybe fixed) : 0
Atom jitter error (maybe fixed) : 0
Drift error (maybe fixed) : 0
Dropped bytes error (maybe fixed) : 0
Duplicated bytes error (maybe fixed) : 0
Inconsistency in error sectors : 0

Track 07
Filename : /Volumes/System2/Helge Lien Trio - To The little Radio/xld/07 Helge Lien Trio - So In Love.flac
Pre-gap length : 00:05:32

Track gain : 0.76 dB
Peak : 0.912781
CRC32 hash (test run) : 44F9D64C
CRC32 hash : 44F9D64C
CRC32 hash (skip zero) : 98AE9B74
AccurateRip v1 signature : C38DF2E4
AccurateRip v2 signature : 0FBC3833
->Accurately ripped (v1+v2, confidence 9+2/11)
Statistics
Read error : 0
Skipped (treated as error) : 0
Edge jitter error (maybe fixed) : 0
Atom jitter error (maybe fixed) : 0
Drift error (maybe fixed) : 0
Dropped bytes error (maybe fixed) : 0
Duplicated bytes error (maybe fixed) : 0
Inconsistency in error sectors : 0

Track 08
Filename : /Volumes/System2/Helge Lien Trio - To The little Radio/xld/08 Helge Lien Trio - Love Song.flac
Pre-gap length : 00:05:46

Track gain : -0.53 dB
Peak : 0.985565
CRC32 hash (test run) : 5786B2A9
CRC32 hash : 5786B2A9
CRC32 hash (skip zero) : C97A3996
AccurateRip v1 signature : 137438C6
AccurateRip v2 signature : 0F35FFAA
->Accurately ripped (v1+v2, confidence 9+2/11)
Statistics
Read error : 0
Skipped (treated as error) : 0
Edge jitter error (maybe fixed) : 0
Atom jitter error (maybe fixed) : 0
Drift error (maybe fixed) : 0
Dropped bytes error (maybe fixed) : 0
Duplicated bytes error (maybe fixed) : 0
Inconsistency in error sectors : 0

Track 09
Filename : /Volumes/System2/Helge Lien Trio - To The little Radio/xld/09 Helge Lien Trio - Amapola.flac
Pre-gap length : 00:06:16

Track gain : -0.31 dB
Peak : 0.865875
CRC32 hash (test run) : F2F2A768
CRC32 hash : F2F2A768
CRC32 hash (skip zero) : B2B5B14C
AccurateRip v1 signature : 7FA44B3A
AccurateRip v2 signature : 35BF5FE5
->Accurately ripped (v1+v2, confidence 9+2/11)
Statistics
Read error : 0
Skipped (treated as error) : 0
Edge jitter error (maybe fixed) : 0
Atom jitter error (maybe fixed) : 0
Drift error (maybe fixed) : 0
Dropped bytes error (maybe fixed) : 0
Duplicated bytes error (maybe fixed) : 0
Inconsistency in error sectors : 0

Track 10
Filename : /Volumes/System2/Helge Lien Trio - To The little Radio/xld/10 Helge Lien Trio - Sonor.flac
Pre-gap length : 00:04:23

Track gain : -0.75 dB
Peak : 0.975922
CRC32 hash (test run) : 760DA545
CRC32 hash : 760DA545
CRC32 hash (skip zero) : BB90F1A5
AccurateRip v1 signature : 4837BDE1
AccurateRip v2 signature : 549B5168
->Accurately ripped (v1+v2, confidence 9+2/11)
Statistics
Read error : 0
Skipped (treated as error) : 0
Edge jitter error (maybe fixed) : 0
Atom jitter error (maybe fixed) : 0
Drift error (maybe fixed) : 0
Dropped bytes error (maybe fixed) : 0
Duplicated bytes error (maybe fixed) : 0
Inconsistency in error sectors : 0

Track 11
Filename : /Volumes/System2/Helge Lien Trio - To The little Radio/xld/11 Helge Lien Trio - To The Little Radio.flac
Pre-gap length : 00:05:27

Track gain : -0.33 dB
Peak : 0.944794
CRC32 hash (test run) : D40186EA
CRC32 hash : D40186EA
CRC32 hash (skip zero) : D2E0FF9B
AccurateRip v1 signature : ED49EAAF
AccurateRip v2 signature : 108F6E80
->Accurately ripped (v1+v2, confidence 8+2/10)
Statistics
Read error : 0
Skipped (treated as error) : 0
Edge jitter error (maybe fixed) : 0
Atom jitter error (maybe fixed) : 0
Drift error (maybe fixed) : 0
Dropped bytes error (maybe fixed) : 0
Duplicated bytes error (maybe fixed) : 0
Inconsistency in error sectors : 0

No errors occurred

End of status report


––––––––––––––––––––––––––––––––––––––––
Analyzed: Helge Lien Trio / To The Little Radio
––––––––––––––––––––––––––––––––––––––––

DR Peak RMS Duration Track
––––––––––––––––––––––––––––––––––––––––
DR13 -0.12 dB -16.94 dB 5:14 01-Grandfathers Waltz
DR13 -1.00 dB -19.86 dB 5:17 02-Look For The Silver Lining
DR15 -2.45 dB -20.55 dB 4:19 03-Chelsea Bridge
DR13 -0.28 dB -17.29 dB 5:39 04-Little Sunflower
DR12 -0.59 dB -18.33 dB 6:14 05-Penelope
DR15 -1.21 dB -21.52 dB 5:35 06-Ida Lupino
DR14 -0.79 dB -18.97 dB 4:47 07-So In Love
DR13 -0.13 dB -16.45 dB 4:43 08-Love Song
DR13 -1.25 dB -17.28 dB 4:04 09-Amapola
DR13 -0.21 dB -16.53 dB 5:30 10-Sonor
DR12 -0.49 dB -19.17 dB 6:44 11-To The Little Radio
––––––––––––––––––––––––––––––––––––––––

Number of tracks: 11
Official DR value: DR13

Samplerate: 44100 Hz
Channels: 2
Bits per sample: 16
Bitrate: 549 kbps
Codec: FLAC
================================================================================

Helge Lien Trio - To The Little Radio (2006) {Japanese Pressing}
Helge Lien Trio - To The Little Radio (2006) {Japanese Pressing}
Helge Lien Trio - To The Little Radio (2006) {Japanese Pressing}


Thanks to the original ripper