Subcategories

Helmuth Rilling, Bach-Collegium Stuttgart, Gächinger Kantorei - Bach: Great Sacred Choral Works (10CDs) [2010]

Posted By: ArlegZ
Helmuth Rilling, Bach-Collegium Stuttgart, Gächinger Kantorei - Bach: Great Sacred Choral Works (10CDs) [2010]

Helmuth Rilling, Bach-Collegium Stuttgart, Gächinger Kantorei - Bach: Great Sacred Choral Works (10CDs) [2010]
EAC | FLAC | Image (Cue & Log) ~ 2.71 Gb | Total time: 10:48:54 | Scans included
Classical | Label: Sony Classical | # 88697687172 | Recorded: 1969-1985

Helmuth Rilling is an excellent conductor and interpreter of Bach's sacred music. Recorded from 1969 to 1985, over a longer period of time than most other sets, there is a lot of change throughout the series. Rilling's recordings are more dense and lush than others, and his tempi are often slower than HIP recordings - no "original instruments" for Rilling. But he creates such a detailed sound-world that any fan of these works should want to hear Rilling's versions to compare with others. This said, Rilling often uses a technique that I find a bit disturbing. He'll have one instrument or group of instruments sequestered to one track, and others on the other track, giving a sound similar to that of early Beatles' stereo mixes, where vocals were on one track and instruments on the other. This is something you never hear in live performance; while one instrument may be on one side, you still hear it on the other side. This tends to make some of the movements sound as though there's no blend among the singers and musicians.
(Kirk McElhearn)

Performer:
Arleen Auger, soprano
Julia Hamari, contralto
Peter Schreier, Adalbert Kraus, tenors
Wolfgang Schöne, Siegmund Nimsgern, Dietrich Fischer-Dieskau, basses
Gächinger Kantorei
Bach-Collegium Stuttgart
Helmuth Rilling, conductor

Track List:
CD01-02: Weihnachts-Oratorium BWV 248
CD03-05: Matthäus-Passion BWV 244
CD06-07: Johannes-Passion BWV 245
CD08-09: Messe h-moll BWV 232
CD10: Magnificat in D major BWV 243/243a


CD01
Exact Audio Copy V1.0 beta 1 from 15. November 2010

EAC extraction logfile from 25. September 2011, 21:04

Helmuth Rilling - Gächinger Kantorei, Bach-Collegium Stuttgart / Bach - Weihnachts-Oratorium BWV 248 CD1

Used drive : PIONEER DVD-RW DVR-218L Adapter: 1 ID: 0

Read mode : Secure
Utilize accurate stream : Yes
Defeat audio cache : Yes
Make use of C2 pointers : No

Read offset correction : 6
Overread into Lead-In and Lead-Out : No
Fill up missing offset samples with silence : Yes
Delete leading and trailing silent blocks : No
Null samples used in CRC calculations : Yes
Used interface : Native Win32 interface for Win NT & 2000

Used output format : User Defined Encoder
Selected bitrate : 192 kBit/s
Quality : High
Add ID3 tag : No
Command line compressor : C:\Program Files\Exact Audio Copy\Flac\flac.exe
Additional command line options : -T "DATE=%y" -T "GENRE=%m" -8 -V %s

TOC of the extracted CD

Track | Start | Length | Start sector | End sector
––––––––––––––––––––––––––––-
1 | 0:00.00 | 7:46.22 | 0 | 34971
2 | 7:46.22 | 1:21.28 | 34972 | 41074
3 | 9:07.50 | 1:15.69 | 41075 | 46768
4 | 10:23.44 | 5:40.25 | 46769 | 72293
5 | 16:03.69 | 1:20.34 | 72294 | 78327
6 | 17:24.28 | 0:24.31 | 78328 | 80158
7 | 17:48.59 | 3:17.35 | 80159 | 94968
8 | 21:06.19 | 4:35.46 | 94969 | 115639
9 | 25:41.65 | 1:17.53 | 115640 | 121467
10 | 26:59.43 | 5:23.66 | 121468 | 145758
11 | 32:23.34 | 0:43.22 | 145759 | 149005
12 | 33:06.56 | 1:14.02 | 149006 | 154557
13 | 34:20.58 | 0:47.40 | 154558 | 158122
14 | 35:08.23 | 0:46.31 | 158123 | 161603
15 | 35:54.54 | 3:23.67 | 161604 | 176895
16 | 39:18.46 | 0:22.41 | 176896 | 178586
17 | 39:41.12 | 0:42.04 | 178587 | 181740
18 | 40:23.16 | 0:56.44 | 181741 | 185984
19 | 41:19.60 | 11:02.69 | 185985 | 235703
20 | 52:22.54 | 0:14.62 | 235704 | 236815
21 | 52:37.41 | 2:54.15 | 236816 | 249880
22 | 55:31.56 | 0:27.58 | 249881 | 251963
23 | 55:59.39 | 1:24.12 | 251964 | 258275
24 | 57:23.51 | 2:05.47 | 258276 | 267697
25 | 59:29.23 | 0:08.49 | 267698 | 268346
26 | 59:37.72 | 0:45.37 | 268347 | 271758
27 | 60:23.34 | 0:44.56 | 271759 | 275114
28 | 61:08.15 | 0:49.70 | 275115 | 278859
29 | 61:58.10 | 7:25.20 | 278860 | 312254
30 | 69:23.30 | 1:23.37 | 312255 | 318516
31 | 70:46.67 | 5:58.65 | 318517 | 345431
32 | 76:45.57 | 0:34.45 | 345432 | 348026
33 | 77:20.27 | 1:05.53 | 348027 | 352954
34 | 78:26.05 | 0:25.73 | 352955 | 354902

Range status and errors

Selected range

Filename C:\Bach - Weihnachts-Oratorium BWV 248 CD1.wav

Peak level 92.8 %
Extraction speed 0.0 X
Range quality 100.0 %
Test CRC 8EAE1695
Copy CRC 8EAE1695
Copy OK

No errors occurred

AccurateRip summary

Track 1 not present in database
Track 2 not present in database
Track 3 not present in database
Track 4 not present in database
Track 5 not present in database
Track 6 not present in database
Track 7 not present in database
Track 8 not present in database
Track 9 not present in database
Track 10 not present in database
Track 11 not present in database
Track 12 not present in database
Track 13 not present in database
Track 14 not present in database
Track 15 not present in database
Track 16 not present in database
Track 17 not present in database
Track 18 not present in database
Track 19 not present in database
Track 20 not present in database
Track 21 not present in database
Track 22 not present in database
Track 23 not present in database
Track 24 not present in database
Track 25 not present in database
Track 26 not present in database
Track 27 not present in database
Track 28 not present in database
Track 29 not present in database
Track 30 not present in database
Track 31 not present in database
Track 32 not present in database
Track 33 not present in database
Track 34 not present in database

None of the tracks are present in the AccurateRip database

End of status report

==== Log checksum C13EBC4D3049D7B5667BA930BF0C41976C5B39521322ACF85B1F166187931B51 ====
CD02
Exact Audio Copy V1.0 beta 1 from 15. November 2010

EAC extraction logfile from 25. September 2011, 23:07

Helmuth Rilling - Gächinger Kantorei, Bach-Collegium Stuttgart / Bach - Weihnachts-Oratorium BWV 248 CD2

Used drive : PIONEER DVD-RW DVR-218L Adapter: 1 ID: 0

Read mode : Secure
Utilize accurate stream : Yes
Defeat audio cache : Yes
Make use of C2 pointers : No

Read offset correction : 6
Overread into Lead-In and Lead-Out : No
Fill up missing offset samples with silence : Yes
Delete leading and trailing silent blocks : No
Null samples used in CRC calculations : Yes
Used interface : Native Win32 interface for Win NT & 2000

Used output format : User Defined Encoder
Selected bitrate : 192 kBit/s
Quality : High
Add ID3 tag : No
Command line compressor : C:\Program Files\Exact Audio Copy\Flac\flac.exe
Additional command line options : -T "DATE=%y" -T "GENRE=%m" -8 -V %s

TOC of the extracted CD

Track | Start | Length | Start sector | End sector
––––––––––––––––––––––––––––-
1 | 0:00.00 | 0:58.13 | 0 | 4362
2 | 0:58.13 | 2:15.56 | 4363 | 14543
3 | 3:13.69 | 5:51.61 | 14544 | 40929
4 | 9:05.55 | 0:32.61 | 40930 | 43390
5 | 9:38.41 | 2:41.35 | 43391 | 55500
6 | 12:20.01 | 5:50.48 | 55501 | 81798
7 | 18:10.49 | 1:40.64 | 81799 | 89362
8 | 19:51.38 | 4:56.64 | 89363 | 111626
9 | 24:48.27 | 2:27.68 | 111627 | 122719
10 | 27:16.20 | 7:29.66 | 122720 | 156460
11 | 34:46.11 | 0:22.22 | 156461 | 158132
12 | 35:08.33 | 2:31.12 | 158133 | 169469
13 | 37:39.45 | 0:59.59 | 169470 | 173953
14 | 38:39.29 | 4:13.43 | 173954 | 192971
15 | 42:52.72 | 0:11.11 | 192972 | 193807
16 | 43:04.08 | 0:44.27 | 193808 | 197134
17 | 43:48.35 | 1:17.68 | 197135 | 202977
18 | 45:06.28 | 5:37.49 | 202978 | 228301
19 | 50:44.02 | 0:38.49 | 228302 | 231200
20 | 51:22.51 | 1:01.57 | 231201 | 235832
21 | 52:24.33 | 4:42.08 | 235833 | 256990
22 | 57:06.41 | 0:43.51 | 256991 | 260266
23 | 57:50.17 | 1:00.52 | 260267 | 264818
24 | 58:50.69 | 3:13.31 | 264819 | 279324
25 | 62:04.25 | 1:13.07 | 279325 | 284806
26 | 63:17.32 | 1:08.31 | 284807 | 289937
27 | 64:25.63 | 0:27.47 | 289938 | 292009
28 | 64:53.35 | 2:04.48 | 292010 | 301357
29 | 66:58.08 | 4:25.36 | 301358 | 321268
30 | 71:23.44 | 0:43.34 | 321269 | 324527
31 | 72:07.03 | 3:09.68 | 324528 | 338770

Range status and errors

Selected range

Filename C:\Bach - Weihnachts-Oratorium BWV 248 CD2.wav

Peak level 95.4 %
Extraction speed 0.0 X
Range quality 100.0 %
Test CRC BCC5F607
Copy CRC BCC5F607
Copy OK

No errors occurred

AccurateRip summary

Track 1 accurately ripped (confidence 1) [E99E6C59]
Track 2 accurately ripped (confidence 1) [DCC15325]
Track 3 accurately ripped (confidence 1) [DE9D3144]
Track 4 accurately ripped (confidence 1) [B334FC83]
Track 5 accurately ripped (confidence 1) [32111D6F]
Track 6 accurately ripped (confidence 1) [33C53D7A]
Track 7 accurately ripped (confidence 1) [850137CE]
Track 8 accurately ripped (confidence 1) [08115749]
Track 9 accurately ripped (confidence 1) [8EA1D8A7]
Track 10 accurately ripped (confidence 1) [5FB243AC]
Track 11 accurately ripped (confidence 1) [B4E650CB]
Track 12 accurately ripped (confidence 1) [E5B7A705]
Track 13 accurately ripped (confidence 1) [2DACBFCE]
Track 14 accurately ripped (confidence 1) [04DA999A]
Track 15 accurately ripped (confidence 1) [64CD3C03]
Track 16 accurately ripped (confidence 1) [AB06110D]
Track 17 accurately ripped (confidence 1) [AEE09F9E]
Track 18 accurately ripped (confidence 1) [914F578E]
Track 19 accurately ripped (confidence 1) [29DA01B0]
Track 20 accurately ripped (confidence 1) [3B03ABF6]
Track 21 accurately ripped (confidence 1) [49B0AD11]
Track 22 accurately ripped (confidence 1) [3025CD81]
Track 23 accurately ripped (confidence 1) [1E1A35A1]
Track 24 accurately ripped (confidence 1) [1CB8E422]
Track 25 accurately ripped (confidence 1) [A6323E7A]
Track 26 accurately ripped (confidence 1) [BD2634E0]
Track 27 accurately ripped (confidence 1) [4FBD3E47]
Track 28 accurately ripped (confidence 1) [7BB24A0D]
Track 29 accurately ripped (confidence 1) [4E53953F]
Track 30 cannot be verified as accurate (confidence 1) [428E09BA], AccurateRip returned [9C9160C2]
Track 31 accurately ripped (confidence 1) [3DF1965E]

30 track(s) accurately ripped
1 track(s) could not be verified as accurate

Some tracks could not be verified as accurate

End of status report

==== Log checksum DA35D2C4637C6531DB39D143B342AD324B17B51B2374BA75DE7CD6D1DE0202EA ====
CD03
Exact Audio Copy V1.0 beta 1 from 15. November 2010

EAC extraction logfile from 26. September 2011, 14:44

Helmuth Rilling - Gächinger Kantorei, Bach-Collegium Stuttgart / Bach - Matthaus Passion BWV244 CD1

Used drive : PIONEER DVD-RW DVR-218L Adapter: 1 ID: 0

Read mode : Secure
Utilize accurate stream : Yes
Defeat audio cache : Yes
Make use of C2 pointers : No

Read offset correction : 6
Overread into Lead-In and Lead-Out : No
Fill up missing offset samples with silence : Yes
Delete leading and trailing silent blocks : No
Null samples used in CRC calculations : Yes
Used interface : Native Win32 interface for Win NT & 2000

Used output format : User Defined Encoder
Selected bitrate : 192 kBit/s
Quality : High
Add ID3 tag : No
Command line compressor : C:\Program Files\Exact Audio Copy\Flac\flac.exe
Additional command line options : -T "DATE=%y" -T "GENRE=%m" -8 -V %s

TOC of the extracted CD

Track | Start | Length | Start sector | End sector
––––––––––––––––––––––––––––-
1 | 0:00.00 | 7:59.32 | 0 | 35956
2 | 7:59.32 | 0:56.03 | 35957 | 40159
3 | 8:55.35 | 0:49.62 | 40160 | 43896
4 | 9:45.22 | 0:29.23 | 43897 | 46094
5 | 10:14.45 | 0:18.00 | 46095 | 47444
6 | 10:32.45 | 0:39.35 | 47445 | 50404
7 | 11:12.05 | 0:33.02 | 50405 | 52881
8 | 11:45.07 | 1:46.03 | 52882 | 60834
9 | 13:31.10 | 1:06.27 | 60835 | 65811
10 | 14:37.37 | 4:55.60 | 65812 | 87996
11 | 19:33.22 | 0:39.30 | 87997 | 90951
12 | 20:12.52 | 5:12.53 | 90952 | 114404
13 | 25:25.30 | 0:17.25 | 114405 | 115704
14 | 25:42.55 | 0:29.07 | 115705 | 117886
15 | 26:11.62 | 2:00.73 | 117887 | 126959
16 | 28:12.60 | 0:56.40 | 126960 | 131199
17 | 29:09.25 | 3:37.70 | 131200 | 147544
18 | 32:47.20 | 1:48.20 | 147545 | 155664
19 | 34:35.40 | 3:50.70 | 155665 | 172984
20 | 38:26.35 | 1:14.37 | 172985 | 178571
21 | 39:40.72 | 1:07.70 | 178572 | 183666
22 | 40:48.67 | 1:09.00 | 183667 | 188841
23 | 41:57.67 | 1:12.38 | 188842 | 194279
24 | 43:10.30 | 2:18.15 | 194280 | 204644
25 | 45:28.45 | 2:03.40 | 204645 | 213909
26 | 47:32.10 | 5:50.42 | 213910 | 240201

Range status and errors

Selected range

Filename C:\Bach - Matthaus Passion BWV244 CD1.wav

Peak level 97.9 %
Extraction speed 0.1 X
Range quality 100.0 %
Test CRC 60E85C19
Copy CRC 60E85C19
Copy OK

No errors occurred

AccurateRip summary

Track 1 cannot be verified as accurate (confidence 3) [48250A1F], AccurateRip returned [86519457]
Track 2 cannot be verified as accurate (confidence 3) [CB19D31C], AccurateRip returned [2A5FD2C7]
Track 3 cannot be verified as accurate (confidence 3) [9AEDED58], AccurateRip returned [226935CD]
Track 4 cannot be verified as accurate (confidence 3) [4A2BCF72], AccurateRip returned [A7B252EA]
Track 5 cannot be verified as accurate (confidence 3) [7C5D29D9], AccurateRip returned [E4A999F4]
Track 6 cannot be verified as accurate (confidence 3) [C2A4D0CF], AccurateRip returned [8D888E16]
Track 7 cannot be verified as accurate (confidence 3) [BC38A05B], AccurateRip returned [3F3D7065]
Track 8 cannot be verified as accurate (confidence 3) [B15A512C], AccurateRip returned [7AC547CE]
Track 9 cannot be verified as accurate (confidence 3) [936E0B08], AccurateRip returned [A5728AAF]
Track 10 cannot be verified as accurate (confidence 3) [1B669EAE], AccurateRip returned [4F4C673E]
Track 11 cannot be verified as accurate (confidence 3) [11E34B0A], AccurateRip returned [B49FE7FF]
Track 12 cannot be verified as accurate (confidence 3) [E0C27CE7], AccurateRip returned [53A98947]
Track 13 cannot be verified as accurate (confidence 3) [DFF3F083], AccurateRip returned [6CD007AC]
Track 14 cannot be verified as accurate (confidence 3) [1D585880], AccurateRip returned [C17E58AE]
Track 15 cannot be verified as accurate (confidence 3) [1B001B3B], AccurateRip returned [4EEE018D]
Track 16 cannot be verified as accurate (confidence 3) [1469F41A], AccurateRip returned [59AE56BF]
Track 17 cannot be verified as accurate (confidence 3) [2044092A], AccurateRip returned [FD80182C]
Track 18 cannot be verified as accurate (confidence 3) [DE9F74BF], AccurateRip returned [3B98980D]
Track 19 cannot be verified as accurate (confidence 3) [767F7B15], AccurateRip returned [6420C372]
Track 20 cannot be verified as accurate (confidence 3) [9930EFB2], AccurateRip returned [F84E2DD2]
Track 21 cannot be verified as accurate (confidence 3) [35870628], AccurateRip returned [3ADBBD36]
Track 22 cannot be verified as accurate (confidence 3) [2372A5E3], AccurateRip returned [176DBCC9]
Track 23 cannot be verified as accurate (confidence 3) [A75546DB], AccurateRip returned [21A047C5]
Track 24 cannot be verified as accurate (confidence 3) [5C1946DD], AccurateRip returned [E129BDDC]
Track 25 cannot be verified as accurate (confidence 3) [F6B8320C], AccurateRip returned [719279D0]
Track 26 cannot be verified as accurate (confidence 3) [6FB80ADC], AccurateRip returned [EB8F2DB4]

No tracks could be verified as accurate
You may have a different pressing from the one(s) in the database

End of status report

==== Log checksum 5BD3E6E7ED293DCA4DCB0CE465B683267E20E3E0F1C117F09BC8CB5DB5BFB95F ====
CD04
Exact Audio Copy V1.0 beta 1 from 15. November 2010

EAC extraction logfile from 26. September 2011, 16:26

Helmuth Rilling - Gächinger Kantorei, Bach-Collegium Stuttgart / Bach - Matthaus-Passion BWV 244 CD2

Used drive : PIONEER DVD-RW DVR-218L Adapter: 1 ID: 0

Read mode : Secure
Utilize accurate stream : Yes
Defeat audio cache : Yes
Make use of C2 pointers : No

Read offset correction : 6
Overread into Lead-In and Lead-Out : No
Fill up missing offset samples with silence : Yes
Delete leading and trailing silent blocks : No
Null samples used in CRC calculations : Yes
Used interface : Native Win32 interface for Win NT & 2000

Used output format : User Defined Encoder
Selected bitrate : 192 kBit/s
Quality : High
Add ID3 tag : No
Command line compressor : C:\Program Files\Exact Audio Copy\Flac\flac.exe
Additional command line options : -T "DATE=%y" -T "GENRE=%m" -8 -V %s

TOC of the extracted CD

Track | Start | Length | Start sector | End sector
––––––––––––––––––––––––––––-
1 | 0:00.00 | 0:54.40 | 0 | 4089
2 | 0:54.40 | 1:14.67 | 4090 | 9706
3 | 2:09.32 | 5:04.68 | 9707 | 32574
4 | 7:14.25 | 1:27.67 | 32575 | 39166
5 | 8:42.17 | 1:11.45 | 39167 | 44536
6 | 9:53.62 | 2:56.10 | 44537 | 57746
7 | 12:49.72 | 5:05.08 | 57747 | 80629
8 | 17:55.05 | 2:37.20 | 80630 | 92424
9 | 20:32.25 | 6:40.70 | 92425 | 122494
10 | 27:13.20 | 4:27.65 | 122495 | 142584
11 | 31:41.10 | 1:06.17 | 142585 | 147551
12 | 32:47.27 | 0:51.05 | 147552 | 151381
13 | 33:38.32 | 1:16.63 | 151382 | 157144
14 | 34:55.20 | 1:09.22 | 157145 | 162341
15 | 36:04.42 | 3:33.25 | 162342 | 178341
16 | 39:37.67 | 1:40.43 | 178342 | 185884
17 | 41:18.35 | 0:40.20 | 185885 | 188904
18 | 41:58.55 | 1:07.15 | 188905 | 193944
19 | 43:05.70 | 1:05.12 | 193945 | 198831
20 | 44:11.07 | 1:48.68 | 198832 | 206999
21 | 46:00.00 | 7:03.55 | 207000 | 238779
22 | 53:03.55 | 1:07.67 | 238780 | 243871
23 | 54:11.47 | 1:18.33 | 243872 | 249754
24 | 55:30.05 | 0:45.20 | 249755 | 253149
25 | 56:15.25 | 3:26.02 | 253150 | 268601
26 | 59:41.27 | 2:31.25 | 268602 | 279951
27 | 62:12.52 | 1:11.53 | 279952 | 285329

Range status and errors

Selected range

Filename C:\Bach - Matthaus-Passion BWV 244 CD2.wav

Peak level 85.1 %
Extraction speed 0.0 X
Range quality 100.0 %
Test CRC 57124BD8
Copy CRC 57124BD8
Copy OK

No errors occurred

AccurateRip summary

Track 1 accurately ripped (confidence 2) [13797E91]
Track 2 accurately ripped (confidence 2) [F23F5102]
Track 3 accurately ripped (confidence 2) [E7F39D99]
Track 4 accurately ripped (confidence 2) [28D62EA0]
Track 5 accurately ripped (confidence 2) [B0617F24]
Track 6 accurately ripped (confidence 2) [ED66233B]
Track 7 accurately ripped (confidence 2) [F3224E7E]
Track 8 accurately ripped (confidence 2) [FD16771C]
Track 9 accurately ripped (confidence 2) [4EDE881F]
Track 10 accurately ripped (confidence 2) [8F5FFEE3]
Track 11 accurately ripped (confidence 2) [3198EFCB]
Track 12 accurately ripped (confidence 2) [A4F824DF]
Track 13 accurately ripped (confidence 2) [61584B86]
Track 14 accurately ripped (confidence 2) [E6AFE973]
Track 15 accurately ripped (confidence 2) [4478AE28]
Track 16 accurately ripped (confidence 2) [79A96143]
Track 17 accurately ripped (confidence 2) [55416AF3]
Track 18 accurately ripped (confidence 2) [0D3AA334]
Track 19 accurately ripped (confidence 2) [80CA7B30]
Track 20 accurately ripped (confidence 2) [5DC5E778]
Track 21 accurately ripped (confidence 2) [96D9FF74]
Track 22 accurately ripped (confidence 2) [EDC38D1B]
Track 23 accurately ripped (confidence 2) [9C4E350B]
Track 24 accurately ripped (confidence 2) [13F6C7DC]
Track 25 accurately ripped (confidence 2) [9ECBCEB0]
Track 26 accurately ripped (confidence 2) [91559BD3]
Track 27 accurately ripped (confidence 2) [D1F35DF4]

All tracks accurately ripped

End of status report

==== Log checksum FF535B0FFD3AECD3850FF1FF679FCD83BD32BA37E14C256E2374AF18F4C4219D ====
CD05
Exact Audio Copy V1.0 beta 1 from 15. November 2010

EAC extraction logfile from 26. September 2011, 17:55

Helmuth Rilling - Gächinger Kantorei, Bach-Collegium Stuttgart / Bach - Matthaus Passion BWV 244 CD3

Used drive : PIONEER DVD-RW DVR-218L Adapter: 1 ID: 0

Read mode : Secure
Utilize accurate stream : Yes
Defeat audio cache : Yes
Make use of C2 pointers : No

Read offset correction : 6
Overread into Lead-In and Lead-Out : No
Fill up missing offset samples with silence : Yes
Delete leading and trailing silent blocks : No
Null samples used in CRC calculations : Yes
Used interface : Native Win32 interface for Win NT & 2000

Used output format : User Defined Encoder
Selected bitrate : 192 kBit/s
Quality : High
Add ID3 tag : No
Command line compressor : C:\Program Files\Exact Audio Copy\Flac\flac.exe
Additional command line options : -T "DATE=%y" -T "GENRE=%m" -8 -V %s

TOC of the extracted CD

Track | Start | Length | Start sector | End sector
––––––––––––––––––––––––––––-
1 | 0:00.00 | 2:46.12 | 0 | 12461
2 | 2:46.12 | 0:55.73 | 12462 | 16659
3 | 3:42.10 | 0:19.00 | 16660 | 18084
4 | 4:01.10 | 1:25.02 | 18085 | 24461
5 | 5:26.12 | 5:58.23 | 24462 | 51334
6 | 11:24.35 | 2:03.47 | 51335 | 60606
7 | 13:28.07 | 0:57.55 | 60607 | 64936
8 | 14:25.62 | 6:35.45 | 64937 | 94606
9 | 21:01.32 | 1:17.60 | 94607 | 100441
10 | 22:19.17 | 2:25.68 | 100442 | 111384
11 | 24:45.10 | 0:49.17 | 111385 | 115076
12 | 25:34.27 | 0:39.68 | 115077 | 118069
13 | 26:14.20 | 6:00.50 | 118070 | 145119
14 | 32:14.70 | 3:19.55 | 145120 | 160099
15 | 35:34.50 | 0:19.25 | 160100 | 161549
16 | 35:54.00 | 1:58.02 | 161550 | 170401
17 | 37:52.02 | 3:42.40 | 170402 | 187091
18 | 41:34.42 | 2:52.48 | 187092 | 200039
19 | 44:27.15 | 1:38.27 | 200040 | 207416
20 | 46:05.42 | 2:55.03 | 207417 | 220544
21 | 49:00.45 | 2:00.10 | 220545 | 229554
22 | 51:00.55 | 6:39.72 | 229555 | 259551
23 | 57:40.52 | 2:41.50 | 259552 | 271676
24 | 60:22.27 | 2:59.40 | 271677 | 285141
25 | 63:21.67 | 6:38.15 | 285142 | 315006

Range status and errors

Selected range

Filename C:\Bach - Matthaus Passion BWV 244 CD3.wav

Peak level 91.2 %
Extraction speed 0.1 X
Range quality 100.0 %
Test CRC 87D49FE9
Copy CRC 87D49FE9
Copy OK

No errors occurred

AccurateRip summary

Track 1 accurately ripped (confidence 3) [DB7DB03B]
Track 2 accurately ripped (confidence 3) [F7EA4D1D]
Track 3 accurately ripped (confidence 3) [8DE8EE70]
Track 4 accurately ripped (confidence 3) [C5608EAA]
Track 5 accurately ripped (confidence 3) [929BD9EE]
Track 6 accurately ripped (confidence 3) [E5184925]
Track 7 accurately ripped (confidence 2) [3F4557D7]
Track 8 accurately ripped (confidence 3) [4C9A2926]
Track 9 accurately ripped (confidence 3) [42A4C3ED]
Track 10 accurately ripped (confidence 3) [90EABF43]
Track 11 accurately ripped (confidence 3) [7E7B2A83]
Track 12 accurately ripped (confidence 3) [E8648EEF]
Track 13 accurately ripped (confidence 3) [347854FC]
Track 14 accurately ripped (confidence 3) [ED0461B3]
Track 15 accurately ripped (confidence 3) [5066BC4F]
Track 16 accurately ripped (confidence 3) [82EF1849]
Track 17 accurately ripped (confidence 3) [31E12050]
Track 18 accurately ripped (confidence 2) [0497B6EF]
Track 19 accurately ripped (confidence 3) [3C2EAD17]
Track 20 accurately ripped (confidence 3) [BC7AD805]
Track 21 accurately ripped (confidence 3) [29C30566]
Track 22 accurately ripped (confidence 3) [FA0653B8]
Track 23 accurately ripped (confidence 2) [3F6ADF2E]
Track 24 accurately ripped (confidence 3) [A25C014A]
Track 25 accurately ripped (confidence 3) [5C5DDB7E]

All tracks accurately ripped

End of status report

==== Log checksum BD8A5946A231A6737C6EA9A5A99FB5728529015B984DF43BD2A72AE376E65A4E ====
CD06
Exact Audio Copy V1.0 beta 1 from 15. November 2010

EAC extraction logfile from 26. September 2011, 19:36

Helmuth Rilling - Gächinger Kantorei, Bach-Collegium Stuttgart / Bach - Johannes-Passion BWV 245 CD1

Used drive : PIONEER DVD-RW DVR-218L Adapter: 1 ID: 0

Read mode : Secure
Utilize accurate stream : Yes
Defeat audio cache : Yes
Make use of C2 pointers : No

Read offset correction : 6
Overread into Lead-In and Lead-Out : No
Fill up missing offset samples with silence : Yes
Delete leading and trailing silent blocks : No
Null samples used in CRC calculations : Yes
Used interface : Native Win32 interface for Win NT & 2000

Used output format : User Defined Encoder
Selected bitrate : 192 kBit/s
Quality : High
Add ID3 tag : No
Command line compressor : C:\Program Files\Exact Audio Copy\Flac\flac.exe
Additional command line options : -T "DATE=%y" -T "GENRE=%m" -8 -V %s

TOC of the extracted CD

Track | Start | Length | Start sector | End sector
––––––––––––––––––––––––––––-
1 | 0:00.00 | 8:40.67 | 0 | 39066
2 | 8:40.67 | 2:33.30 | 39067 | 50571
3 | 11:14.22 | 0:58.63 | 50572 | 54984
4 | 12:13.10 | 1:22.25 | 54985 | 61159
5 | 13:35.35 | 1:04.22 | 61160 | 65981
6 | 14:39.57 | 0:45.73 | 65982 | 69429
7 | 15:25.55 | 5:23.57 | 69430 | 93711
8 | 20:49.37 | 0:14.40 | 93712 | 94801
9 | 21:04.02 | 3:42.15 | 94802 | 111466
10 | 24:46.17 | 3:20.38 | 111467 | 126504
11 | 28:06.55 | 1:46.40 | 126505 | 134494
12 | 29:53.20 | 2:35.52 | 134495 | 146171
13 | 32:28.72 | 2:25.13 | 146172 | 157059
14 | 34:54.10 | 1:32.52 | 157060 | 164011
15 | 36:26.62 | 1:15.63 | 164012 | 169699
16 | 37:42.50 | 4:50.12 | 169700 | 191461
17 | 42:32.62 | 1:54.45 | 191462 | 200056
18 | 44:27.32 | 2:10.65 | 200057 | 209871
19 | 46:38.22 | 2:13.55 | 209872 | 219901
20 | 48:52.02 | 8:08.35 | 219902 | 256536

Range status and errors

Selected range

Filename C:\Bach - Johannes-Passion BWV 245 CD1.wav

Peak level 99.9 %
Extraction speed 0.2 X
Range quality 100.0 %
Test CRC 701FCB2B
Copy CRC 701FCB2B
Copy OK

No errors occurred

AccurateRip summary

Track 1 cannot be verified as accurate (confidence 3) [3825E8AB], AccurateRip returned [88D05027]
Track 2 cannot be verified as accurate (confidence 3) [75A1F4F2], AccurateRip returned [8A407055]
Track 3 cannot be verified as accurate (confidence 3) [6EE93760], AccurateRip returned [E6ECD753]
Track 4 cannot be verified as accurate (confidence 3) [ECF9022E], AccurateRip returned [4E8F77A0]
Track 5 cannot be verified as accurate (confidence 3) [3172B0B3], AccurateRip returned [7A3A0A2D]
Track 6 cannot be verified as accurate (confidence 3) [A7BAF828], AccurateRip returned [43C61342]
Track 7 cannot be verified as accurate (confidence 3) [82442D40], AccurateRip returned [2D29998B]
Track 8 cannot be verified as accurate (confidence 3) [7F3638AB], AccurateRip returned [956783C9]
Track 9 cannot be verified as accurate (confidence 3) [0DCFA40B], AccurateRip returned [3C832E65]
Track 10 cannot be verified as accurate (confidence 3) [2C8C38B3], AccurateRip returned [27F359F2]
Track 11 cannot be verified as accurate (confidence 3) [BF2AB9A2], AccurateRip returned [4B1CE5F4]
Track 12 cannot be verified as accurate (confidence 3) [41D84BF6], AccurateRip returned [94349247]
Track 13 cannot be verified as accurate (confidence 3) [21BEBD0D], AccurateRip returned [E0D85230]
Track 14 cannot be verified as accurate (confidence 3) [AAEB54E4], AccurateRip returned [061BE688]
Track 15 cannot be verified as accurate (confidence 3) [5270A112], AccurateRip returned [500864B0]
Track 16 cannot be verified as accurate (confidence 3) [02A6C9E1], AccurateRip returned [56815611]
Track 17 cannot be verified as accurate (confidence 3) [B94E3C1E], AccurateRip returned [91A499C3]
Track 18 cannot be verified as accurate (confidence 3) [6B7115F2], AccurateRip returned [F7B6C47A]
Track 19 cannot be verified as accurate (confidence 3) [E41428FD], AccurateRip returned [8A7FCF7E]
Track 20 cannot be verified as accurate (confidence 3) [1A486451], AccurateRip returned [11D16221]

No tracks could be verified as accurate
You may have a different pressing from the one(s) in the database

End of status report

==== Log checksum 9D141A53B188D4A3D1DB95E89451B3323B38006A27899F7AED6636F97148F578 ====
CD07
Exact Audio Copy V1.0 beta 1 from 15. November 2010

EAC extraction logfile from 26. September 2011, 21:09

Helmuth Rilling - Gächinger Kantorei, Bach-Collegium Stuttgart / Bach - Johannes-Passion BWV 245 CD2

Used drive : PIONEER DVD-RW DVR-218L Adapter: 1 ID: 0

Read mode : Secure
Utilize accurate stream : Yes
Defeat audio cache : Yes
Make use of C2 pointers : No

Read offset correction : 6
Overread into Lead-In and Lead-Out : No
Fill up missing offset samples with silence : Yes
Delete leading and trailing silent blocks : No
Null samples used in CRC calculations : Yes
Used interface : Native Win32 interface for Win NT & 2000

Used output format : User Defined Encoder
Selected bitrate : 192 kBit/s
Quality : High
Add ID3 tag : No
Command line compressor : C:\Program Files\Exact Audio Copy\Flac\flac.exe
Additional command line options : -T "DATE=%y" -T "GENRE=%m" -8 -V %s

TOC of the extracted CD

Track | Start | Length | Start sector | End sector
––––––––––––––––––––––––––––-
1 | 0:00.00 | 6:16.45 | 0 | 28244
2 | 6:16.45 | 1:05.50 | 28245 | 33169
3 | 7:22.20 | 4:20.32 | 33170 | 52701
4 | 11:42.52 | 4:08.40 | 52702 | 71341
5 | 15:51.17 | 2:05.45 | 71342 | 80761
6 | 17:56.62 | 1:20.33 | 80762 | 86794
7 | 19:17.20 | 4:18.02 | 86795 | 106146
8 | 23:35.22 | 1:22.25 | 106147 | 112321
9 | 24:57.47 | 1:41.18 | 112322 | 119914
10 | 26:38.65 | 5:57.10 | 119915 | 146699
11 | 32:36.00 | 0:32.45 | 146700 | 149144
12 | 33:08.45 | 4:22.72 | 149145 | 168866
13 | 37:31.42 | 0:29.15 | 168867 | 171056
14 | 38:00.57 | 0:51.58 | 171057 | 174939
15 | 38:52.40 | 6:07.55 | 174940 | 202519
16 | 45:00.20 | 2:14.20 | 202520 | 212589
17 | 47:14.40 | 1:11.37 | 212590 | 217951
18 | 48:26.02 | 2:02.48 | 217952 | 227149
19 | 50:28.50 | 7:09.00 | 227150 | 259324
20 | 57:37.50 | 2:13.12 | 259325 | 269311

Range status and errors

Selected range

Filename C:\Bach - Johannes-Passion BWV 245 CD2.wav

Peak level 100.0 %
Extraction speed 0.0 X
Range quality 100.0 %
Test CRC BBB9D8DD
Copy CRC BBB9D8DD
Copy OK

No errors occurred

AccurateRip summary

Track 1 not present in database
Track 2 not present in database
Track 3 not present in database
Track 4 not present in database
Track 5 not present in database
Track 6 not present in database
Track 7 not present in database
Track 8 not present in database
Track 9 not present in database
Track 10 not present in database
Track 11 not present in database
Track 12 not present in database
Track 13 not present in database
Track 14 not present in database
Track 15 not present in database
Track 16 not present in database
Track 17 not present in database
Track 18 not present in database
Track 19 not present in database
Track 20 not present in database

None of the tracks are present in the AccurateRip database

End of status report

==== Log checksum 80AC3BF935A6FD581DBC37D94B7576AD896FFE89100F8291411F39AFC6A7E6E0 ====
CD08
Exact Audio Copy V1.0 beta 1 from 15. November 2010

EAC extraction logfile from 27. September 2011, 14:33

Helmuth Rilling - Gächinger Kantorei, Bach-Collegium Stuttgart / Bach - Messe h-moll BWV 232 CD1

Used drive : PIONEER DVD-RW DVR-218L Adapter: 1 ID: 0

Read mode : Secure
Utilize accurate stream : Yes
Defeat audio cache : Yes
Make use of C2 pointers : No

Read offset correction : 6
Overread into Lead-In and Lead-Out : No
Fill up missing offset samples with silence : Yes
Delete leading and trailing silent blocks : No
Null samples used in CRC calculations : Yes
Used interface : Native Win32 interface for Win NT & 2000

Used output format : User Defined Encoder
Selected bitrate : 192 kBit/s
Quality : High
Add ID3 tag : No
Command line compressor : C:\Program Files\Exact Audio Copy\Flac\flac.exe
Additional command line options : -T "DATE=%y" -T "GENRE=%m" -8 -V %s

TOC of the extracted CD

Track | Start | Length | Start sector | End sector
––––––––––––––––––––––––––––-
1 | 0:00.00 | 12:31.47 | 0 | 56371
2 | 12:31.47 | 5:53.55 | 56372 | 82901
3 | 18:25.27 | 4:15.48 | 82902 | 102074
4 | 22:41.00 | 1:45.55 | 102075 | 110004
5 | 24:26.55 | 4:29.22 | 110005 | 130201
6 | 28:56.02 | 4:56.23 | 130202 | 152424
7 | 33:52.25 | 3:02.50 | 152425 | 166124
8 | 36:55.00 | 6:44.67 | 166125 | 196491
9 | 43:39.67 | 3:49.28 | 196492 | 213694
10 | 47:29.20 | 6:36.57 | 213695 | 243451
11 | 54:06.02 | 5:48.18 | 243452 | 269569
12 | 59:54.20 | 4:12.62 | 269570 | 288531

Range status and errors

Selected range

Filename C:\Bach - Messe h-moll BWV 232 CD1.wav

Peak level 73.1 %
Extraction speed 0.1 X
Range quality 100.0 %
Test CRC F7AB0CB7
Copy CRC F7AB0CB7
Copy OK

No errors occurred

AccurateRip summary

Track 1 cannot be verified as accurate (confidence 12) [1E461234], AccurateRip returned [95741DA0]
Track 2 cannot be verified as accurate (confidence 12) [89E1A702], AccurateRip returned [5A4ED0C7]
Track 3 cannot be verified as accurate (confidence 12) [9F028270], AccurateRip returned [39BD373F]
Track 4 cannot be verified as accurate (confidence 12) [F98C5F1F], AccurateRip returned [32B7F7D6]
Track 5 cannot be verified as accurate (confidence 12) [F997AB49], AccurateRip returned [F4587715]
Track 6 cannot be verified as accurate (confidence 12) [A0FD57CB], AccurateRip returned [E033AE79]
Track 7 cannot be verified as accurate (confidence 12) [F30302B5], AccurateRip returned [E1D4D9CF]
Track 8 cannot be verified as accurate (confidence 12) [4907400E], AccurateRip returned [CD136746]
Track 9 cannot be verified as accurate (confidence 12) [1C4EE7BF], AccurateRip returned [8167834C]
Track 10 cannot be verified as accurate (confidence 12) [B1455AB5], AccurateRip returned [6A54F5B8]
Track 11 cannot be verified as accurate (confidence 12) [FE0282B5], AccurateRip returned [D41EE712]
Track 12 cannot be verified as accurate (confidence 11) [5FA24F58], AccurateRip returned [A5F8D30A]

No tracks could be verified as accurate
You may have a different pressing from the one(s) in the database

End of status report

==== Log checksum 940CC00C1FB51B8D16266EC45F069D66B1B9C2253F115C29207B1FB59388FD66 ====
CD09
Exact Audio Copy V1.0 beta 1 from 15. November 2010

EAC extraction logfile from 27. September 2011, 16:12

Helmuth Rilling - Gachinger Kantorei, Bach-Collegium Stuttgart / Bach - Messe h-moll BWV 232 CD2

Used drive : PIONEER DVD-RW DVR-218L Adapter: 1 ID: 0

Read mode : Secure
Utilize accurate stream : Yes
Defeat audio cache : Yes
Make use of C2 pointers : No

Read offset correction : 6
Overread into Lead-In and Lead-Out : No
Fill up missing offset samples with silence : Yes
Delete leading and trailing silent blocks : No
Null samples used in CRC calculations : Yes
Used interface : Native Win32 interface for Win NT & 2000

Used output format : User Defined Encoder
Selected bitrate : 192 kBit/s
Quality : High
Add ID3 tag : No
Command line compressor : C:\Program Files\Exact Audio Copy\Flac\flac.exe
Additional command line options : -T "DATE=%y" -T "GENRE=%m" -8 -V %s

TOC of the extracted CD

Track | Start | Length | Start sector | End sector
––––––––––––––––––––––––––––-
1 | 0:00.00 | 2:44.32 | 0 | 12331
2 | 2:44.32 | 2:18.00 | 12332 | 22681
3 | 5:02.32 | 5:50.70 | 22682 | 49001
4 | 10:53.27 | 3:57.48 | 49002 | 66824
5 | 14:51.00 | 4:02.50 | 66825 | 85024
6 | 18:53.50 | 4:16.25 | 85025 | 104249
7 | 23:10.00 | 6:21.25 | 104250 | 132849
8 | 29:31.25 | 3:36.02 | 132850 | 149051
9 | 33:07.27 | 4:43.53 | 149052 | 170329
10 | 37:51.05 | 5:38.00 | 170330 | 195679
11 | 43:29.05 | 2:50.45 | 195680 | 208474
12 | 46:19.50 | 5:50.12 | 208475 | 234736
13 | 52:09.62 | 2:57.08 | 234737 | 248019
14 | 55:06.70 | 6:49.57 | 248020 | 278751
15 | 61:56.52 | 3:45.30 | 278752 | 295656

Range status and errors

Selected range

Filename C:\Bach - Messe h-moll BWV 232 CD2.wav

Peak level 71.5 %
Extraction speed 0.1 X
Range quality 100.0 %
Test CRC 3B582AF1
Copy CRC 3B582AF1
Copy OK

No errors occurred

AccurateRip summary

Track 1 cannot be verified as accurate (confidence 10) [4D6A811B], AccurateRip returned [FB3EA633]
Track 2 cannot be verified as accurate (confidence 10) [91D02367], AccurateRip returned [E4103328]
Track 3 cannot be verified as accurate (confidence 10) [97EDEA44], AccurateRip returned [E57B8A89]
Track 4 cannot be verified as accurate (confidence 10) [BC95A99F], AccurateRip returned [31E6FFF1]
Track 5 cannot be verified as accurate (confidence 10) [5211572F], AccurateRip returned [0A66767D]
Track 6 cannot be verified as accurate (confidence 10) [64DBD364], AccurateRip returned [41718930]
Track 7 cannot be verified as accurate (confidence 10) [EBCF5D25], AccurateRip returned [1DFF2D6D]
Track 8 cannot be verified as accurate (confidence 10) [74D197F5], AccurateRip returned [F5F5F616]
Track 9 cannot be verified as accurate (confidence 10) [4C697CDB], AccurateRip returned [DF315D51]
Track 10 cannot be verified as accurate (confidence 10) [0DC44606], AccurateRip returned [982D3278]
Track 11 cannot be verified as accurate (confidence 10) [B1343953], AccurateRip returned [E74380B8]
Track 12 cannot be verified as accurate (confidence 10) [1C48827C], AccurateRip returned [779F5DD4]
Track 13 cannot be verified as accurate (confidence 10) [2E64B6A3], AccurateRip returned [880A4F76]
Track 14 cannot be verified as accurate (confidence 10) [81A08D3A], AccurateRip returned [3E968879]
Track 15 cannot be verified as accurate (confidence 9) [BA348B63], AccurateRip returned [1E09B637]

No tracks could be verified as accurate
You may have a different pressing from the one(s) in the database

End of status report

==== Log checksum 810B3B3CE6542FE1251A8B7DB1CE38F2882E0721515541FD5503281F9D05B8E2 ====
CD10
Exact Audio Copy V1.0 beta 1 from 15. November 2010

EAC extraction logfile from 27. September 2011, 17:49

Helmuth Rilling - Gachinger Kantorei, Bach-Collegium Stuttgart / Bach - Magnificat in D major BWV 243/243a, Schemelli-Liederbuch

Used drive : PIONEER DVD-RW DVR-218L Adapter: 1 ID: 0

Read mode : Secure
Utilize accurate stream : Yes
Defeat audio cache : Yes
Make use of C2 pointers : No

Read offset correction : 6
Overread into Lead-In and Lead-Out : No
Fill up missing offset samples with silence : Yes
Delete leading and trailing silent blocks : No
Null samples used in CRC calculations : Yes
Used interface : Native Win32 interface for Win NT & 2000

Used output format : User Defined Encoder
Selected bitrate : 192 kBit/s
Quality : High
Add ID3 tag : No
Command line compressor : C:\Program Files\Exact Audio Copy\Flac\flac.exe
Additional command line options : -T "DATE=%y" -T "GENRE=%m" -8 -V %s

TOC of the extracted CD

Track | Start | Length | Start sector | End sector
––––––––––––––––––––––––––––-
1 | 0:00.00 | 3:05.27 | 0 | 13901
2 | 3:05.27 | 2:30.18 | 13902 | 25169
3 | 5:35.45 | 1:38.15 | 25170 | 32534
4 | 7:13.60 | 2:33.25 | 32535 | 44034
5 | 9:47.10 | 1:20.00 | 44035 | 50034
6 | 11:07.10 | 2:10.25 | 50035 | 59809
7 | 13:17.35 | 1:23.07 | 59810 | 66041
8 | 14:40.42 | 3:43.35 | 66042 | 82801
9 | 18:24.02 | 2:00.60 | 82802 | 91861
10 | 20:24.62 | 1:19.20 | 91862 | 97806
11 | 21:44.07 | 1:55.45 | 97807 | 106476
12 | 23:39.52 | 3:08.63 | 106477 | 120639
13 | 26:48.40 | 2:58.00 | 120640 | 133989
14 | 29:46.40 | 2:02.15 | 133990 | 143154
15 | 31:48.55 | 2:03.57 | 143155 | 152436
16 | 33:52.37 | 2:21.10 | 152437 | 163021
17 | 36:13.47 | 2:40.30 | 163022 | 175051
18 | 38:54.02 | 1:22.65 | 175052 | 181266
19 | 40:16.67 | 5:12.63 | 181267 | 204729
20 | 45:29.55 | 4:24.72 | 204730 | 224601
21 | 49:54.52 | 2:55.70 | 224602 | 237796
22 | 52:50.47 | 1:42.73 | 237797 | 245519
23 | 54:33.45 | 2:16.00 | 245520 | 255719
24 | 56:49.45 | 2:12.12 | 255720 | 265631
25 | 59:01.57 | 1:28.43 | 265632 | 272274

Range status and errors

Selected range

Filename C:\Bach - Magnificat in D major BWV 243,243a, Schemelli-Liederbuch.wav

Peak level 100.0 %
Extraction speed 0.0 X
Range quality 100.0 %
Test CRC 85DF2EF7
Copy CRC 85DF2EF7
Copy OK

No errors occurred

AccurateRip summary

Track 1 cannot be verified as accurate (confidence 5) [32FE3C3D], AccurateRip returned [A7E18809]
Track 2 cannot be verified as accurate (confidence 5) [9BB8D94E], AccurateRip returned [C699453D]
Track 3 cannot be verified as accurate (confidence 5) [879CAAFF], AccurateRip returned [751C5857]
Track 4 cannot be verified as accurate (confidence 5) [FF0CC1D0], AccurateRip returned [9F41D959]
Track 5 cannot be verified as accurate (confidence 5) [F8F3ADB3], AccurateRip returned [BFBFD15B]
Track 6 cannot be verified as accurate (confidence 5) [9CA68D50], AccurateRip returned [C4D5922B]
Track 7 cannot be verified as accurate (confidence 5) [DB704F5E], AccurateRip returned [BE018B6C]
Track 8 cannot be verified as accurate (confidence 5) [6658D361], AccurateRip returned [72A35804]
Track 9 cannot be verified as accurate (confidence 5) [51E7686C], AccurateRip returned [4818D6A5]
Track 10 cannot be verified as accurate (confidence 5) [BB0BACB8], AccurateRip returned [39BE5C79]
Track 11 cannot be verified as accurate (confidence 5) [3E88B765], AccurateRip returned [A63C8F44]
Track 12 cannot be verified as accurate (confidence 5) [B4EE132D], AccurateRip returned [67842EDE]
Track 13 cannot be verified as accurate (confidence 5) [C8009E44], AccurateRip returned [58F1D5A9]
Track 14 cannot be verified as accurate (confidence 5) [65537109], AccurateRip returned [C1092527]
Track 15 cannot be verified as accurate (confidence 5) [0D20064E], AccurateRip returned [7DC77BD9]
Track 16 cannot be verified as accurate (confidence 5) [B0B929D8], AccurateRip returned [FD9D6B7F]
Track 17 cannot be verified as accurate (confidence 5) [6491D351], AccurateRip returned [F5886F97]
Track 18 cannot be verified as accurate (confidence 5) [05C949A1], AccurateRip returned [CB6C2210]
Track 19 cannot be verified as accurate (confidence 5) [8835BB0F], AccurateRip returned [5B493862]
Track 20 cannot be verified as accurate (confidence 5) [C64B994A], AccurateRip returned [6780D7E9]
Track 21 cannot be verified as accurate (confidence 5) [831F829A], AccurateRip returned [82A0B364]
Track 22 cannot be verified as accurate (confidence 5) [273BD173], AccurateRip returned [AE6B40B0]
Track 23 cannot be verified as accurate (confidence 5) [75786DDE], AccurateRip returned [C4A39452]
Track 24 cannot be verified as accurate (confidence 5) [AF8C8BD6], AccurateRip returned [7A0E27DE]
Track 25 cannot be verified as accurate (confidence 4) [1D56F37B], AccurateRip returned [95E3C76D]

No tracks could be verified as accurate
You may have a different pressing from the one(s) in the database

End of status report

==== Log checksum 2BA9F1BED7B16B6237773FBFA0D256FE80BC196AD759F120F9E0F3138AA033E7 ====