Subcategories

Helsinki Philharmonic Orchestra, Leif Segerstam - Earquake: The Loudest Classical Music of All Time (2017)

Posted By: tirexiss
Helsinki Philharmonic Orchestra, Leif Segerstam - Earquake: The Loudest Classical Music of All Time (2017)

Helsinki Philharmonic Orchestra, Leif Segerstam - Earquake: The Loudest Classical Music of All Time (2017)
EAC | FLAC (image+.cue, log) | Covers Included | 59:07 | 338 MB
Genre: Classical | Label: Ondine | Catalog: ODE 1210-2

This album brings together some of the loudest, most exciting music ever written - neither music, nor your hearing, will ever be the same! The music has been arranged for continuous listening. With that in mind, three quiet ""valleys"" have been programmed to provide contrast with the very loud music that follows them. You may find that the contrast actually adds to the excitement. The 140-piece Helsinki Philharmonic Orchestra under Leif Segerstram includes, among others, a 22-person percussion section, four sets of rocks hit with hammers, two heavy metal chains, anvils, steel plates, sirens, and several dozen cannon shots. The final track, Hekla, is probably the loudest single piece of music ever written. It describes, in very graphic terms, the eruption of Hekla, Iceland's largest active volcano.

Helsinki Philharmonic Orchestra, Leif Segerstam - Earquake: The Loudest Classical Music of All Time (2017)

Track List:

01. Hanson: Symphony No.6 - VI. Allegro
02. Rangström: Symphony No.4 - II. Invocatio
03. Khachaturian: Gayaneh - Mountaineers
04. Prokofiev: Scythian Suite - Ala et Lolly
05. Druckman: After Cavalli - Prism
06. Revueltas: Night of the Mayas - 4th variation and finale from Night of Enchantment
07. Nielsen: Aladdin Suite - Negro Dance
08. Ginastera: Estancia - Malambo
09. Schulhoff: Ogelala - Weapon Dance
10. Segerstam: Nostalgic Thoughts in KAAMOStime - Nostalgic Thoughts
11. Bolcom: Symphony No.5 - IV. Machine
12. Ibert - Bacchanale (excerpts)
13. Respighi: Belkis, Queen of Sheba - War Dance
14. Shostakovich: The Golden Age - Can-Can
15. Rautavaara: Symphony No.7 - III. Angel of Light (excerpts)
16. Leifs: Hekla (Volcano)

Performers:
Helsinki Philharmonic Orchestra
Leif Segerstam, conductor

Exact Audio Copy V1.3 from 2. September 2016

EAC extraction logfile from 29. August 2017, 21:23

Helsinki Philharmonic Orchestra, Leif Segerstam / Earquake

Used drive : TSSTcorpCD/DVDW SH-S182M Adapter: 1 ID: 1

Read mode : Secure
Utilize accurate stream : Yes
Defeat audio cache : Yes
Make use of C2 pointers : No

Read offset correction : 6
Overread into Lead-In and Lead-Out : No
Fill up missing offset samples with silence : Yes
Delete leading and trailing silent blocks : No
Null samples used in CRC calculations : Yes
Used interface : Native Win32 interface for Win NT & 2000

Used output format : User Defined Encoder
Selected bitrate : 128 kBit/s
Quality : High
Add ID3 tag : No
Command line compressor : C:\Program Files (x86)\Exact Audio Copy\Flac\flac.exe
Additional command line options : -V -8 -T "Date=%year%" -T "Genre=%genre%" %source%


TOC of the extracted CD

Track | Start | Length | Start sector | End sector
––––––––––––––––––––––––––––-
1 | 0:00.00 | 1:55.18 | 0 | 8642
2 | 1:55.18 | 2:57.50 | 8643 | 21967
3 | 4:52.68 | 1:55.45 | 21968 | 30637
4 | 6:48.38 | 2:22.16 | 30638 | 41303
5 | 9:10.54 | 2:48.65 | 41304 | 53968
6 | 11:59.44 | 3:48.74 | 53969 | 71142
7 | 15:48.43 | 4:26.23 | 71143 | 91115
8 | 20:14.66 | 3:46.40 | 91116 | 108105
9 | 24:01.31 | 4:16.44 | 108106 | 127349
10 | 28:18.00 | 2:19.39 | 127350 | 137813
11 | 30:37.39 | 3:43.39 | 137814 | 154577
12 | 34:21.03 | 3:22.10 | 154578 | 169737
13 | 37:43.13 | 2:45.64 | 169738 | 182176
14 | 40:29.02 | 6:21.02 | 182177 | 210753
15 | 46:50.04 | 3:00.35 | 210754 | 224288
16 | 49:50.39 | 9:17.25 | 224289 | 266088


Range status and errors

Selected range

Filename C:\temp\Earquake\Earquake.wav

Peak level 100.0 %
Extraction speed 7.2 X
Range quality 100.0 %
Test CRC 6426C0BB
Copy CRC 6426C0BB
Copy OK

No errors occurred


AccurateRip summary

Track 1 cannot be verified as accurate (confidence 18) [F2D54D98], AccurateRip returned [71CFEA0A] (AR v2)
Track 2 cannot be verified as accurate (confidence 18) [176320F6], AccurateRip returned [CE038792] (AR v2)
Track 3 cannot be verified as accurate (confidence 18) [B6E11104], AccurateRip returned [5545536E] (AR v2)
Track 4 cannot be verified as accurate (confidence 18) [47104231], AccurateRip returned [EEA07E9A] (AR v2)
Track 5 cannot be verified as accurate (confidence 18) [89A9D445], AccurateRip returned [EE3EF4EB] (AR v2)
Track 6 cannot be verified as accurate (confidence 18) [7DD910B1], AccurateRip returned [F7684E1C] (AR v2)
Track 7 cannot be verified as accurate (confidence 18) [CE2DA947], AccurateRip returned [EED7B852] (AR v2)
Track 8 cannot be verified as accurate (confidence 18) [0DC27E4F], AccurateRip returned [1BDBEF1A] (AR v2)
Track 9 cannot be verified as accurate (confidence 18) [37E744AE], AccurateRip returned [25C662B6] (AR v2)
Track 10 cannot be verified as accurate (confidence 18) [31D267E9], AccurateRip returned [EE2A99F5] (AR v2)
Track 11 cannot be verified as accurate (confidence 18) [BDE6D0E9], AccurateRip returned [9651BBD7] (AR v2)
Track 12 cannot be verified as accurate (confidence 18) [CE691641], AccurateRip returned [FFB1EAAF] (AR v2)
Track 13 cannot be verified as accurate (confidence 18) [9DB9890E], AccurateRip returned [00DBC973] (AR v2)
Track 14 cannot be verified as accurate (confidence 18) [61B55069], AccurateRip returned [4EB89448] (AR v2)
Track 15 cannot be verified as accurate (confidence 18) [8566A08F], AccurateRip returned [7DD0EF60] (AR v2)
Track 16 cannot be verified as accurate (confidence 18) [B9B4180D], AccurateRip returned [9E48E138] (AR v2)

No tracks could be verified as accurate
You may have a different pressing from the one(s) in the database

End of status report

==== Log checksum 66EA77877041E2D15BDB030A272B095D600407C47204A72F6E9FC7F3BD165B91 ====

[CUETools log; Date: 01.09.2017 9:47:42; Version: 2.1.5]
[CTDB TOCID: 98.dXRHXdrR1.M4dVGsP.p7tOn4-] found.
Track | CTDB Status
1 | (33/34) Accurately ripped
2 | (33/34) Accurately ripped
3 | (33/34) Accurately ripped
4 | (32/34) Accurately ripped
5 | (33/34) Accurately ripped
6 | (33/34) Accurately ripped
7 | (33/34) Accurately ripped
8 | (33/34) Accurately ripped
9 | (33/34) Accurately ripped
10 | (33/34) Accurately ripped
11 | (34/34) Accurately ripped
12 | (33/34) Accurately ripped
13 | (33/34) Accurately ripped
14 | (33/34) Accurately ripped
15 | (33/34) Accurately ripped
16 | (33/34) Accurately ripped
[AccurateRip ID: 001cfc9c-016845f5-bd0ddb10] found.
Track [ CRC | V2 ] Status
01 [fede3db4|f2d54d98] (00+00/33) No match
02 [6670c52e|176320f6] (00+00/33) No match
03 [7fd79555|b6e11104] (00+00/33) No match
04 [0182399f|47104231] (00+00/33) No match
05 [b10bf8da|89a9d445] (00+00/33) No match
06 [c0a2b0f4|7dd910b1] (00+00/33) No match
07 [ecddddea|ce2da947] (00+00/33) No match
08 [14189ca9|0dc27e4f] (00+00/33) No match
09 [3091263b|37e744ae] (00+00/33) No match
10 [5b5ade02|31d267e9] (00+00/33) No match
11 [8dee23b4|bde6d0e9] (00+00/33) No match
12 [821d5379|ce691641] (00+00/33) No match
13 [c54bbb90|9db9890e] (00+00/33) No match
14 [d7aff478|61b55069] (00+00/33) No match
15 [38804492|8566a08f] (00+00/33) No match
16 [811ed10b|b9b4180d] (00+00/33) No match
Offsetted by 6:
01 [7cf08f45] (15/33) Accurately ripped
02 [1e781e24] (15/33) Accurately ripped
03 [1f21e8e4] (15/33) Accurately ripped
04 [aa2f3098] (15/33) Accurately ripped
05 [144c143c] (15/33) Accurately ripped
06 [3bfd5a69] (15/33) Accurately ripped
07 [0fa04a9b] (15/33) Accurately ripped
08 [23f8d3b6] (15/33) Accurately ripped
09 [2076b64c] (15/33) Accurately ripped
10 [18cbcb7a] (15/33) Accurately ripped
11 [681816f5] (15/33) Accurately ripped
12 [b4fe50c6] (15/33) Accurately ripped
13 [29b89091] (15/33) Accurately ripped
14 [c7b45c46] (15/33) Accurately ripped
15 [3255cb05] (15/33) Accurately ripped
16 [615017e3] (15/33) Accurately ripped

Track Peak [ CRC32 ] [W/O NULL] [ LOG ]
– 100,0 [6426C0BB] [B7163557] CRC32
01 99,9 [7E6908C4] [1D524C27]
02 99,9 [881F6C6F] [3C13564D]
03 100,0 [AEAC5967] [B8CA7FAF]
04 99,5 [67A145D9] [61DD714E]
05 41,7 [7710205A] [4EFEDDEE]
06 99,8 [509C44D6] [CB2BE8B6]
07 99,9 [3F03913B] [43ABBE88]
08 98,9 [2E384A92] [5F3701D1]
09 99,9 [3467C644] [32D58E5C]
10 46,3 [1B18BBA0] [3F2B4A65]
11 99,9 [563C101A] [6488A9B4]
12 99,2 [ECE09110] [5D50749E]
13 99,5 [8B2D11E6] [0E9F8AC7]
14 98,3 [DC09D997] [BFEA9595]
15 16,1 [3569E87B] [DD72EA9A]
16 99,9 [5C5A459F] [0DAEC5EA]

Thanks to the Original ripper A-Z!

Download: