Subcategories
Tags
Language
Tags

Herbert von Karajan, Philharmonia Orchestra - Beethoven: Symphonies Nos. 1-9 & Overtures (2014) (6 CDs Box Set)

Posted By: murena
Herbert von Karajan, Philharmonia Orchestra - Beethoven: Symphonies Nos. 1-9 & Overtures (2014) (6 CDs Box Set)

Herbert von Karajan, Philharmonia Orchestra - Beethoven: Symphonies Nos. 1-9 & Overtures (2014) (6 CDs Box Set)
EAC Rip | FLAC (Tracks+.cue, log) | 6 CDs, 07:14:39 min | Covers included | 1,38 Gb
Genre: Classical / Label: Warner

The Karajan Official Remastered Edition comprises 13 box sets containing official remasterings of the finest recordings the Austrian conductor made for EMI between 1946 and 1984, and which are now a jewel of the Warner Classics catalogue.

For many, Herbert von Karajan (1908-1989) – hailed early in his career as ‘Das Wunder Karajan’ (The Karajan Miracle) and known in the early 1960s as ‘the music director of Europe’ – remains the ultimate embodiment of the maestro. The release of the Karajan Official Remastered Edition over the first half of 2014 marks the 25th anniversary of the conductor’s death in July 1989 at the age of 81.

He was closely associated with EMI for the majority of his recording career (specifically from 1946 to 1960 and then again from 1969 to 1984). EMI’s legendary producer Walter Legge sought him out in Vienna just after World War II and the long relationship that ensued embraced recordings with the Vienna Philharmonic, the Philharmonia (the orchestra founded by Legge), the Berlin Philharmonic (of which Karajan became ‘conductor for life’ in 1955), the forces of La Scala, Milan, and the Orchestre de Paris.

The Karajan Official Remastered Edition will feature primarily symphonic and choral music. The entire edition will comprise recordings remastered from the original sources in 24-bit/96kHz at Abbey Road Studios, the world’s most renowned recording studio.

Herbert von Karajan, Philharmonia Orchestra - Beethoven: Symphonies Nos. 1-9 & Overtures (2014) (6 CDs Box Set)


Tracklist:

Disc: 1
1. Symphony No. 1 in C Major, Op. 21: I. Adagio molto - Allegro con brio
2. Symphony No. 1 in C Major, Op. 21: II. Andante cantabile con moto
3. Symphony No. 1 in C Major, Op. 21: III. Menuetto & Trio - Allegro molto e vivace
4. Symphony No. 1 in C Major, Op. 21: IV. Adagio - Allegro molto e vivace
5. Symphony No. 2 in D Major, Op. 36: I. Adagio molto - Allegro con brio
6. Symphony No. 2 in D Major, Op. 36: II. Larghetto
7. Symphony No. 2 in D Major, Op. 36: III. Scherzo & Trio - Allegro
8. Symphony No. 2 in D Major, Op. 36: IV. Allegro molto
9. Leonore: Overture No. 3 in C Major, Op. 72b

Disc: 2
1. Symphony No. 3 in E-Flat Major, Op. 55 "Eroica": I Allegro con brio
2. Symphony No. 3 in E-Flat Major, Op. 55 "Eroica": II. Marcia funebre - Adagio assai
3. Symphony No. 3 in E-Flat Major, Op. 55 "Eroica": III. Scherzo & Trio - Allegro vivace
4. Symphony No. 3 in E-Flat Major, Op. 55 "Eroica": IV. Allegro molto - Poco andante - Presto
5. Symphony No. 8 in F Major, Op. 93: I. Allegro vivace e con brio
6. Symphony No. 8 in F Major, Op. 93: II. Allegretto scherzando
7. Symphony No. 8 in F Major, Op. 93: III. Tempo di menuetto
8. Symphony No. 8 in F Major, Op. 93: IV. Allegro vivace

Disc: 3
1. Symphony No. 4 in B-Flat Major, Op. 60: I. Adagio - Allegro vivace
2. Symphony No. 4 in B-Flat Major, Op. 60: II. Adagio
3. Symphony No. 4 in B-Flat Major, Op. 60: III. Menuetto. Allegro vivace - Trio. Un poco meno allegro
4. Symphony No. 4 in B-Flat Major, Op. 60: IV. Allegro ma non troppo
5. Symphony No. 5 in C Minor, Op. 67: I. Allegro con brio
6. Symphony No. 5 in C Minor, Op. 67: II. Andante con moto
7. Symphony No. 5 in C Minor, Op. 67: III. Allegro
8. Symphony No. 5 in C Minor, Op. 67: IV. Allegro - Presto
9. Coriolan, Op. 62: Overture in E Minor

Disc: 4
1. Symphony No. 6 in F Major, Op. 68 'Pastoral': I. Allegro ma non troppo - Awakening of happy feeling
2. Symphony No. 6 in F Major, Op. 68 'Pastoral': II. Andante molto mosso - By the brook
3. Symphony No. 6 in F Major, Op. 68 'Pastoral': III. Allegro - sempre più stretto - In tempo d'allegr
4. Symphony No. 6 in F Major, Op. 68 'Pastoral': IV. Allegro - Thunder and storm
5. Symphony No. 6 in F Major, Op. 68 'Pastoral': V. Allegretto - Shepherds' song, Happy and thankful f
6. Symphony No. 7 in A Major, Op. 92: I. Poco sostenuto - Vivace
7. Symphony No. 7 in A Major, Op. 92: II. Allegretto
8. Symphony No. 7 in A Major, Op. 92: III. Presto - Assai meno presto
9. Symphony No. 7 in A Major, Op. 92: IV. Allegro con brio

Disc: 5
1. Egmont, Op. 84: Overture in F Minor
2. Symphony No. 9 in D Minor, Op.125 'Choral': I. Allegro ma non troppo, un poco maestoso
3. Symphony No. 9 in D Minor, Op.125 'Choral': II. Molto vivace - Presto - Molto vivace - Presto
4. Symphony No. 9 in D Minor, Op.125 'Choral': III. Adagio molto e cantabile - Andante moderato
5. Symphony No. 9 in D Minor, Op. 125, 'Choral': IV. Presto - Allegro assai - Prestissimo, (Ode to Joy)

Disc: 6
1. Symphony No. 9 in D Minor, Op. 125, "Choral": I. Allegro ma non troppo, un poco maestoso (Stereo Version)
2. Symphony No. 9 in D Minor, Op. 125 "Choral": II. Molto vivace - Presto (Stereo Version)
3. Symphony No. 9 in D Minor, Op. 125 "Choral": III. Adagio molto e cantabile - Andante moderato (Stere
4. Symphony No. 9 in D Minor, Op. 125 "Choral": IV. Presto - "O Freunde, nicht diese Töne!" (Ode to Joy)

CD1
Exact Audio Copy V1.3 from 2. September 2016

EAC extraction logfile from 18. May 2017, 21:46

Karajan / Beethoven: Symphonies 1-9, Overtures 1951-1955 1

Used drive : PLEXTOR CD-R PREMIUM2 Adapter: 1 ID: 0

Read mode : Secure
Utilize accurate stream : Yes
Defeat audio cache : Yes
Make use of C2 pointers : No

Read offset correction : 30
Overread into Lead-In and Lead-Out : Yes
Fill up missing offset samples with silence : Yes
Delete leading and trailing silent blocks : No
Null samples used in CRC calculations : Yes
Used interface : Native Win32 interface for Win NT & 2000
Gap handling : Appended to previous track

Used output format : User Defined Encoder
Selected bitrate : 1024 kBit/s
Quality : High
Add ID3 tag : No
Command line compressor : C:\Program Files (x86)\Exact Audio Copy\Flac\flac.exe
Additional command line options : -8 -V -T "ARTIST=%artist%" -T "TITLE=%title%" -T "ALBUM=%albumtitle%" -T "DATE=%year%" -T "TRACKNUMBER=%tracknr%" -T "GENRE=%genre%" -T "PERFORMER=%albuminterpret%" -T "COMPOSER=%composer%" %haslyrics%–tag-from-file=LYRICS="%lyricsfile%"%haslyrics% -T "ALBUMARTIST=%albumartist%" -T "DISCNUMBER=%cdnumber%" -T "TOTALDISCS=%totalcds%" -T "TOTALTRACKS=%numtracks%" -T "COMMENT=%comment%" %source% -o %dest%


TOC of the extracted CD

Track | Start | Length | Start sector | End sector
––––––––––––––––––––––––––––-
1 | 0:00.00 | 7:33.26 | 0 | 34000
2 | 7:33.26 | 6:15.45 | 34001 | 62170
3 | 13:48.71 | 3:45.23 | 62171 | 79068
4 | 17:34.19 | 5:46.28 | 79069 | 105046
5 | 23:20.47 | 10:44.28 | 105047 | 153374
6 | 34:05.00 | 10:38.04 | 153375 | 201228
7 | 44:43.04 | 3:43.17 | 201229 | 217970
8 | 48:26.21 | 6:38.19 | 217971 | 247839
9 | 55:04.40 | 14:59.34 | 247840 | 315298


Track 1

Filename D:\Music\Ripping\Beethoven- Symphonies 1-9, Overtures 1951-1955 1\01 Symphony no. 1 in C, op. 21- I. Adagio molto - Allegro con brio.wav

Pre-gap length 0:00:02.00

Peak level 99.8 %
Extraction speed 4.9 X
Track quality 100.0 %
Test CRC B5EE53BC
Copy CRC B5EE53BC
Accurately ripped (confidence 16) [06DC8BCC] (AR v2)
Copy OK

Track 2

Filename D:\Music\Ripping\Beethoven- Symphonies 1-9, Overtures 1951-1955 1\02 Symphony no. 1 in C, op. 21- II. Andante cantabile con moto.wav

Peak level 51.8 %
Extraction speed 4.8 X
Track quality 100.0 %
Test CRC 301C3078
Copy CRC 301C3078
Accurately ripped (confidence 16) [10FA7399] (AR v2)
Copy OK

Track 3

Filename D:\Music\Ripping\Beethoven- Symphonies 1-9, Overtures 1951-1955 1\03 Symphony no. 1 in C, op. 21- III. Menuetto- Allegro molto vivace - Trio.wav

Peak level 59.1 %
Extraction speed 4.5 X
Track quality 100.0 %
Test CRC 67C1F6A0
Copy CRC 67C1F6A0
Accurately ripped (confidence 16) [9180B32D] (AR v2)
Copy OK

Track 4

Filename D:\Music\Ripping\Beethoven- Symphonies 1-9, Overtures 1951-1955 1\04 Symphony no. 1 in C, op. 21- IV. Adagio - Allegro molto e vivace.wav

Peak level 81.6 %
Extraction speed 4.8 X
Track quality 100.0 %
Test CRC F70F35BB
Copy CRC F70F35BB
Accurately ripped (confidence 16) [47DF2A0E] (AR v2)
Copy OK

Track 5

Filename D:\Music\Ripping\Beethoven- Symphonies 1-9, Overtures 1951-1955 1\05 Symphony no. 2 in D, op. 36- I. Adagio molto - Allegro con brio.wav

Pre-gap length 0:00:04.28

Peak level 89.6 %
Extraction speed 5.0 X
Track quality 100.0 %
Test CRC 72E5E4DF
Copy CRC 72E5E4DF
Accurately ripped (confidence 16) [CFA79968] (AR v2)
Copy OK

Track 6

Filename D:\Music\Ripping\Beethoven- Symphonies 1-9, Overtures 1951-1955 1\06 Symphony no. 2 in D, op. 36- II. Larghetto.wav

Peak level 87.9 %
Extraction speed 4.6 X
Track quality 99.9 %
Test CRC 0371E215
Copy CRC 0371E215
Accurately ripped (confidence 16) [B3055050] (AR v2)
Copy OK

Track 7

Filename D:\Music\Ripping\Beethoven- Symphonies 1-9, Overtures 1951-1955 1\07 Symphony no. 2 in D, op. 36- III. Scherzo- Allegro - Trio.wav

Peak level 87.3 %
Extraction speed 4.5 X
Track quality 100.0 %
Test CRC 9A6EDC16
Copy CRC 9A6EDC16
Accurately ripped (confidence 16) [B9758EE6] (AR v2)
Copy OK

Track 8

Filename D:\Music\Ripping\Beethoven- Symphonies 1-9, Overtures 1951-1955 1\08 Symphony no. 2 in D, op. 36- IV. Allegro molto.wav

Peak level 85.5 %
Extraction speed 4.9 X
Track quality 100.0 %
Test CRC 0C23AF5D
Copy CRC 0C23AF5D
Accurately ripped (confidence 16) [49B2E86C] (AR v2)
Copy OK

Track 9

Filename D:\Music\Ripping\Beethoven- Symphonies 1-9, Overtures 1951-1955 1\09 Overture- Leonore no. 3, op. 72b.wav

Pre-gap length 0:00:04.77

Peak level 88.1 %
Extraction speed 5.3 X
Track quality 100.0 %
Test CRC BB8853C7
Copy CRC BB8853C7
Accurately ripped (confidence 16) [A953F5B6] (AR v2)
Copy OK


All tracks accurately ripped

No errors occurred

End of status report

–– CUETools DB Plugin V2.1.6

[CTDB TOCID: 8YiOXyO8DqHaqdQ7ZASymxMjNAk-] found
Submit result: 8YiOXyO8DqHaqdQ7ZASymxMjNAk- has been confirmed
Track | CTDB Status
1 | (41/41) Accurately ripped
2 | (41/41) Accurately ripped
3 | (41/41) Accurately ripped
4 | (41/41) Accurately ripped
5 | (41/41) Accurately ripped
6 | (41/41) Accurately ripped
7 | (41/41) Accurately ripped
8 | (41/41) Accurately ripped
9 | (41/41) Accurately ripped


==== Log checksum D5C631C5DA9B941F202B5B93D01A2A89A3F266871D7A2FCE23B799D0E06D8443 ====


CD2
Exact Audio Copy V1.3 from 2. September 2016

EAC extraction logfile from 18. May 2017, 22:21

Herbert von Karajan / Karajan - Beethoven- Symphonies 1-9, Overtures 1951-1955 2

Used drive : PLEXTOR CD-R PREMIUM2 Adapter: 1 ID: 0

Read mode : Secure
Utilize accurate stream : Yes
Defeat audio cache : Yes
Make use of C2 pointers : No

Read offset correction : 30
Overread into Lead-In and Lead-Out : Yes
Fill up missing offset samples with silence : Yes
Delete leading and trailing silent blocks : No
Null samples used in CRC calculations : Yes
Used interface : Native Win32 interface for Win NT & 2000
Gap handling : Appended to previous track

Used output format : User Defined Encoder
Selected bitrate : 1024 kBit/s
Quality : High
Add ID3 tag : No
Command line compressor : C:\Program Files (x86)\Exact Audio Copy\Flac\flac.exe
Additional command line options : -8 -V -T "ARTIST=%artist%" -T "TITLE=%title%" -T "ALBUM=%albumtitle%" -T "DATE=%year%" -T "TRACKNUMBER=%tracknr%" -T "GENRE=%genre%" -T "PERFORMER=%albuminterpret%" -T "COMPOSER=%composer%" %haslyrics%–tag-from-file=LYRICS="%lyricsfile%"%haslyrics% -T "ALBUMARTIST=%albumartist%" -T "DISCNUMBER=%cdnumber%" -T "TOTALDISCS=%totalcds%" -T "TOTALTRACKS=%numtracks%" -T "COMMENT=%comment%" %source% -o %dest%


TOC of the extracted CD

Track | Start | Length | Start sector | End sector
––––––––––––––––––––––––––––-
1 | 0:00.00 | 14:38.32 | 0 | 65881
2 | 14:38.32 | 16:28.32 | 65882 | 140013
3 | 31:06.64 | 5:45.35 | 140014 | 165923
4 | 36:52.24 | 11:59.02 | 165924 | 219850
5 | 48:51.26 | 9:02.33 | 219851 | 260533
6 | 57:53.59 | 3:55.29 | 260534 | 278187
7 | 61:49.13 | 5:49.53 | 278188 | 304415
8 | 67:38.66 | 7:37.35 | 304416 | 338725


Track 1

Filename D:\Music\Ripping\Karajan - Beethoven- Symphonies 1-9, Overtures 1951-1955 2\01 Symphony No.3 in E flat Op.35 ''Eroica', Allegro con brio.wav

Pre-gap length 0:00:02.00

Peak level 85.9 %
Extraction speed 4.9 X
Track quality 99.9 %
Test CRC 4C475F12
Copy CRC 4C475F12
Accurately ripped (confidence 14) [9F96606F] (AR v2)
Copy OK

Track 2

Filename D:\Music\Ripping\Karajan - Beethoven- Symphonies 1-9, Overtures 1951-1955 2\02 Marcia Funebre- Adagio assai.wav

Peak level 87.9 %
Extraction speed 5.1 X
Track quality 100.0 %
Test CRC 0DE1ED90
Copy CRC 0DE1ED90
Accurately ripped (confidence 14) [BCA7E7D3] (AR v2)
Copy OK

Track 3

Filename D:\Music\Ripping\Karajan - Beethoven- Symphonies 1-9, Overtures 1951-1955 2\03 Scherzo- Allegro vivace- Trio.wav

Peak level 96.2 %
Extraction speed 4.8 X
Track quality 100.0 %
Test CRC FAFD1B61
Copy CRC FAFD1B61
Accurately ripped (confidence 14) [1F92E200] (AR v2)
Copy OK

Track 4

Filename D:\Music\Ripping\Karajan - Beethoven- Symphonies 1-9, Overtures 1951-1955 2\04 Finale- Allegro molto- Poco andante- Presto.wav

Peak level 97.3 %
Extraction speed 5.1 X
Track quality 100.0 %
Test CRC 94100A86
Copy CRC 94100A86
Accurately ripped (confidence 14) [B6271AE0] (AR v2)
Copy OK

Track 5

Filename D:\Music\Ripping\Karajan - Beethoven- Symphonies 1-9, Overtures 1951-1955 2\05 Symphony No.8 in F Op.93, Allegro vivace e con brio.wav

Pre-gap length 0:00:09.04

Peak level 93.5 %
Extraction speed 5.0 X
Track quality 100.0 %
Test CRC 74D0F30F
Copy CRC 74D0F30F
Accurately ripped (confidence 14) [8844CBA2] (AR v2)
Copy OK

Track 6

Filename D:\Music\Ripping\Karajan - Beethoven- Symphonies 1-9, Overtures 1951-1955 2\06 Allegretto scherzando.wav

Peak level 56.6 %
Extraction speed 3.9 X
Track quality 99.9 %
Test CRC 897EABB1
Copy CRC 897EABB1
Accurately ripped (confidence 14) [474DC533] (AR v2)
Copy OK

Track 7

Filename D:\Music\Ripping\Karajan - Beethoven- Symphonies 1-9, Overtures 1951-1955 2\07 Tempo di menuetto.wav

Peak level 73.7 %
Extraction speed 4.8 X
Track quality 100.0 %
Test CRC 3A43A2A3
Copy CRC 3A43A2A3
Accurately ripped (confidence 14) [5DF969FC] (AR v2)
Copy OK

Track 8

Filename D:\Music\Ripping\Karajan - Beethoven- Symphonies 1-9, Overtures 1951-1955 2\08 Allegro vivace.wav

Peak level 92.1 %
Extraction speed 2.8 X
Track quality 99.9 %
Test CRC 4FF759EF
Copy CRC 4FF759EF
Accurately ripped (confidence 14) [DF464E24] (AR v2)
Copy OK


All tracks accurately ripped

No errors occurred

End of status report

–– CUETools DB Plugin V2.1.6

[CTDB TOCID: WhDudnpMxjmy4a3oMC3miVJ8lK0-] found
Submit result: WhDudnpMxjmy4a3oMC3miVJ8lK0- has been confirmed
Track | CTDB Status
1 | (41/42) Accurately ripped
2 | (42/42) Accurately ripped
3 | (42/42) Accurately ripped
4 | (42/42) Accurately ripped
5 | (42/42) Accurately ripped
6 | (42/42) Accurately ripped
7 | (42/42) Accurately ripped
8 | (42/42) Accurately ripped


==== Log checksum C1325EA9530A72057C9CCD6A3D5912A751061E76020316DBEFAE85A35F195222 ====


CD3
Exact Audio Copy V1.3 from 2. September 2016

EAC extraction logfile from 19. May 2017, 6:28

Herbert von Karajan / Beethoven- Symphonies 1-9, Overtures 1951-1955 3

Used drive : PLEXTOR CD-R PREMIUM2 Adapter: 1 ID: 0

Read mode : Secure
Utilize accurate stream : Yes
Defeat audio cache : Yes
Make use of C2 pointers : No

Read offset correction : 30
Overread into Lead-In and Lead-Out : Yes
Fill up missing offset samples with silence : Yes
Delete leading and trailing silent blocks : No
Null samples used in CRC calculations : Yes
Used interface : Native Win32 interface for Win NT & 2000
Gap handling : Appended to previous track

Used output format : User Defined Encoder
Selected bitrate : 1024 kBit/s
Quality : High
Add ID3 tag : No
Command line compressor : C:\Program Files (x86)\Exact Audio Copy\Flac\flac.exe
Additional command line options : -8 -V -T "ARTIST=%artist%" -T "TITLE=%title%" -T "ALBUM=%albumtitle%" -T "DATE=%year%" -T "TRACKNUMBER=%tracknr%" -T "GENRE=%genre%" -T "PERFORMER=%albuminterpret%" -T "COMPOSER=%composer%" %haslyrics%–tag-from-file=LYRICS="%lyricsfile%"%haslyrics% -T "ALBUMARTIST=%albumartist%" -T "DISCNUMBER=%cdnumber%" -T "TOTALDISCS=%totalcds%" -T "TOTALTRACKS=%numtracks%" -T "COMMENT=%comment%" %source% -o %dest%


TOC of the extracted CD

Track | Start | Length | Start sector | End sector
––––––––––––––––––––––––––––-
1 | 0:00.00 | 10:57.13 | 0 | 49287
2 | 10:57.13 | 11:13.60 | 49288 | 99822
3 | 22:10.73 | 5:59.44 | 99823 | 126791
4 | 28:10.42 | 5:57.40 | 126792 | 153606
5 | 34:08.07 | 7:19.34 | 153607 | 186565
6 | 41:27.41 | 9:42.56 | 186566 | 230271
7 | 51:10.22 | 4:58.30 | 230272 | 252651
8 | 56:08.52 | 8:57.41 | 252652 | 292967
9 | 65:06.18 | 9:09.38 | 292968 | 334180


Track 1

Filename D:\Music\Ripping\Beethoven- Symphonies 1-9, Overtures 1951-1955 3\01 Symphony No. 4 in B-flat major, Op. 60 - I. Adagio - Allegro vivace.wav

Pre-gap length 0:00:02.00

Peak level 90.4 %
Extraction speed 5.0 X
Track quality 100.0 %
Test CRC 22C7F404
Copy CRC 22C7F404
Accurately ripped (confidence 14) [42B62CD1] (AR v2)
Copy OK

Track 2

Filename D:\Music\Ripping\Beethoven- Symphonies 1-9, Overtures 1951-1955 3\02 II. Adagio.wav

Peak level 94.4 %
Extraction speed 5.0 X
Track quality 100.0 %
Test CRC 18DAC99C
Copy CRC 18DAC99C
Accurately ripped (confidence 14) [2E205A8A] (AR v2)
Copy OK

Track 3

Filename D:\Music\Ripping\Beethoven- Symphonies 1-9, Overtures 1951-1955 3\03 III. Menuetto- Allegro vivace - Trio- Un poco meno allegro.wav

Peak level 88.7 %
Extraction speed 4.8 X
Track quality 100.0 %
Test CRC B50CB499
Copy CRC B50CB499
Accurately ripped (confidence 14) [8D993B37] (AR v2)
Copy OK

Track 4

Filename D:\Music\Ripping\Beethoven- Symphonies 1-9, Overtures 1951-1955 3\04 IV. Allegro ma non troppo.wav

Peak level 89.4 %
Extraction speed 4.4 X
Track quality 99.9 %
Test CRC 20CC01A6
Copy CRC 20CC01A6
Accurately ripped (confidence 14) [9248D55F] (AR v2)
Copy OK

Track 5

Filename D:\Music\Ripping\Beethoven- Symphonies 1-9, Overtures 1951-1955 3\05 Symphony No. 5 in C minor, Op. 67 - I. Allegro con brio.wav

Pre-gap length 0:00:07.13

Peak level 92.5 %
Extraction speed 4.9 X
Track quality 100.0 %
Test CRC 02ED4317
Copy CRC 02ED4317
Accurately ripped (confidence 14) [42CB1FA0] (AR v2)
Copy OK

Track 6

Filename D:\Music\Ripping\Beethoven- Symphonies 1-9, Overtures 1951-1955 3\06 II. Andante con moto.wav

Peak level 76.4 %
Extraction speed 5.0 X
Track quality 100.0 %
Test CRC C9D11469
Copy CRC C9D11469
Accurately ripped (confidence 14) [D7942A59] (AR v2)
Copy OK

Track 7

Filename D:\Music\Ripping\Beethoven- Symphonies 1-9, Overtures 1951-1955 3\07 III. Allegro.wav

Peak level 85.2 %
Extraction speed 4.7 X
Track quality 100.0 %
Test CRC 5FE84645
Copy CRC 5FE84645
Accurately ripped (confidence 14) [44E1D33C] (AR v2)
Copy OK

Track 8

Filename D:\Music\Ripping\Beethoven- Symphonies 1-9, Overtures 1951-1955 3\08 IV. Allegro - Presto.wav

Peak level 96.0 %
Extraction speed 4.9 X
Track quality 100.0 %
Test CRC 24BB8013
Copy CRC 24BB8013
Accurately ripped (confidence 14) [25AE9C8D] (AR v2)
Copy OK

Track 9

Filename D:\Music\Ripping\Beethoven- Symphonies 1-9, Overtures 1951-1955 3\09 Coriolan Overture, Op. 62.wav

Pre-gap length 0:00:07.36

Peak level 93.9 %
Extraction speed 5.2 X
Track quality 100.0 %
Test CRC 0D5DB612
Copy CRC 0D5DB612
Accurately ripped (confidence 14) [42F6A05E] (AR v2)
Copy OK


All tracks accurately ripped

No errors occurred

End of status report

–– CUETools DB Plugin V2.1.6

[CTDB TOCID: 5nZ7Goof52fLr9.E7AhmNqVeNHs-] found
Submit result: 5nZ7Goof52fLr9.E7AhmNqVeNHs- has been confirmed
Track | CTDB Status
1 | (42/43) Accurately ripped
2 | (42/43) Accurately ripped
3 | (42/43) Accurately ripped
4 | (42/43) Accurately ripped
5 | (42/43) Accurately ripped
6 | (42/43) Accurately ripped
7 | (42/43) Accurately ripped
8 | (42/43) Accurately ripped
9 | (42/43) Accurately ripped


==== Log checksum 10DB100517D264FCA89C7EC8B6C669658B238B08163FD6AAC8484AF141BC1A44 ====


CD4
Exact Audio Copy V1.3 from 2. September 2016

EAC extraction logfile from 19. May 2017, 7:02

Herbert von Karajan / Beethoven- Symphonies 1-9, Overtures 1951-1955 4

Used drive : PLEXTOR CD-R PREMIUM2 Adapter: 1 ID: 0

Read mode : Secure
Utilize accurate stream : Yes
Defeat audio cache : Yes
Make use of C2 pointers : No

Read offset correction : 30
Overread into Lead-In and Lead-Out : Yes
Fill up missing offset samples with silence : Yes
Delete leading and trailing silent blocks : No
Null samples used in CRC calculations : Yes
Used interface : Native Win32 interface for Win NT & 2000
Gap handling : Appended to previous track

Used output format : User Defined Encoder
Selected bitrate : 1024 kBit/s
Quality : High
Add ID3 tag : No
Command line compressor : C:\Program Files (x86)\Exact Audio Copy\Flac\flac.exe
Additional command line options : -8 -V -T "ARTIST=%artist%" -T "TITLE=%title%" -T "ALBUM=%albumtitle%" -T "DATE=%year%" -T "TRACKNUMBER=%tracknr%" -T "GENRE=%genre%" -T "PERFORMER=%albuminterpret%" -T "COMPOSER=%composer%" %haslyrics%–tag-from-file=LYRICS="%lyricsfile%"%haslyrics% -T "ALBUMARTIST=%albumartist%" -T "DISCNUMBER=%cdnumber%" -T "TOTALDISCS=%totalcds%" -T "TOTALTRACKS=%numtracks%" -T "COMMENT=%comment%" %source% -o %dest%


TOC of the extracted CD

Track | Start | Length | Start sector | End sector
––––––––––––––––––––––––––––-
1 | 0:00.00 | 9:20.73 | 0 | 42072
2 | 9:20.73 | 12:10.08 | 42073 | 96830
3 | 21:31.06 | 3:02.12 | 96831 | 110492
4 | 24:33.18 | 3:33.18 | 110493 | 126485
5 | 28:06.36 | 9:29.57 | 126486 | 169217
6 | 37:36.18 | 12:44.46 | 169218 | 226563
7 | 50:20.64 | 9:08.20 | 226564 | 267683
8 | 59:29.09 | 8:40.49 | 267684 | 306732
9 | 68:09.58 | 7:05.19 | 306733 | 338626


Track 1

Filename D:\Music\Ripping\Beethoven- Symphonies 1-9, Overtures 1951-1955 4\01 Symphony No 6 in F major, Op 68 ''Pastoral'', Allegro ma non troppo- Awakening of pleasant feelings upon arriving in the country.wav

Pre-gap length 0:00:02.00

Peak level 68.1 %
Extraction speed 5.0 X
Track quality 100.0 %
Test CRC 97136EFF
Copy CRC 97136EFF
Accurately ripped (confidence 15) [F8953286] (AR v2)
Copy OK

Track 2

Filename D:\Music\Ripping\Beethoven- Symphonies 1-9, Overtures 1951-1955 4\02 Beethoven, Ludwig Van- Sym No 6 in F major, Op 68 ''Pastoral'' , Andante molto mosso- Scene at the Brook.wav

Peak level 27.6 %
Extraction speed 5.1 X
Track quality 100.0 %
Test CRC 899FB251
Copy CRC 899FB251
Accurately ripped (confidence 15) [06DC0DB7] (AR v2)
Copy OK

Track 3

Filename D:\Music\Ripping\Beethoven- Symphonies 1-9, Overtures 1951-1955 4\03 Beethoven, Ludwig Van- Sym No 6 in F major, Op 68 ''Pastoral'' , Allegro- Peasants' Merrymaking.wav

Peak level 74.4 %
Extraction speed 4.3 X
Track quality 100.0 %
Test CRC BC5567E0
Copy CRC BC5567E0
Accurately ripped (confidence 15) [D1DE2A6C] (AR v2)
Copy OK

Track 4

Filename D:\Music\Ripping\Beethoven- Symphonies 1-9, Overtures 1951-1955 4\04 Beethoven, Ludwig Van- Sym No 6 in F major, Op 68 ''Pastoral'' , Allegro- The Storm.wav

Peak level 97.4 %
Extraction speed 4.4 X
Track quality 100.0 %
Test CRC 59C7AD60
Copy CRC 59C7AD60
Accurately ripped (confidence 15) [68B9BF24] (AR v2)
Copy OK

Track 5

Filename D:\Music\Ripping\Beethoven- Symphonies 1-9, Overtures 1951-1955 4\05 Beethoven, Ludwig Van- Sym No 6 in F major, Op 68 ''Pastoral'' , Allegretto- Shepherds' Hymn after the Storm.wav

Peak level 78.5 %
Extraction speed 5.0 X
Track quality 100.0 %
Test CRC 8652263B
Copy CRC 8652263B
Accurately ripped (confidence 15) [AA8DDC2A] (AR v2)
Copy OK

Track 6

Filename D:\Music\Ripping\Beethoven- Symphonies 1-9, Overtures 1951-1955 4\06 Symphony No 7 in A major, Op 92, Poco sostenuto- Vivace.wav

Pre-gap length 0:00:07.28

Peak level 88.8 %
Extraction speed 5.1 X
Track quality 100.0 %
Test CRC 22E9AC50
Copy CRC 22E9AC50
Accurately ripped (confidence 15) [D158C4FF] (AR v2)
Copy OK

Track 7

Filename D:\Music\Ripping\Beethoven- Symphonies 1-9, Overtures 1951-1955 4\07 Allegretto.wav

Peak level 59.5 %
Extraction speed 5.0 X
Track quality 100.0 %
Test CRC 2221EA49
Copy CRC 2221EA49
Accurately ripped (confidence 15) [0A196C95] (AR v2)
Copy OK

Track 8

Filename D:\Music\Ripping\Beethoven- Symphonies 1-9, Overtures 1951-1955 4\08 Presto- Assai meno presto.wav

Peak level 86.5 %
Extraction speed 5.0 X
Track quality 100.0 %
Test CRC 6C04C044
Copy CRC 6C04C044
Accurately ripped (confidence 15) [EF7CA9CE] (AR v2)
Copy OK

Track 9

Filename D:\Music\Ripping\Beethoven- Symphonies 1-9, Overtures 1951-1955 4\09 Beethoven, Ludwig Van- Sym No 7 in A major, Op 92 , Allegro con brio.wav

Peak level 75.1 %
Extraction speed 5.2 X
Track quality 100.0 %
Test CRC 8BC7FD89
Copy CRC 8BC7FD89
Accurately ripped (confidence 15) [023A3FFF] (AR v2)
Copy OK


All tracks accurately ripped

No errors occurred

End of status report

–– CUETools DB Plugin V2.1.6

[CTDB TOCID: 2d.jqtIIJKunY.KTI8ALjVVe9c0-] found
Submit result: 2d.jqtIIJKunY.KTI8ALjVVe9c0- has been confirmed
Track | CTDB Status
1 | (41/42) Accurately ripped
2 | (42/42) Accurately ripped
3 | (42/42) Accurately ripped
4 | (42/42) Accurately ripped
5 | (42/42) Accurately ripped
6 | (42/42) Accurately ripped
7 | (42/42) Accurately ripped
8 | (42/42) Accurately ripped
9 | (42/42) Accurately ripped


==== Log checksum 09CE73BDEDD3DC4147B61998A56B6CFBBBFC71672DEF3D2B2C1EAB06E7D52D36 ====


CD5
Exact Audio Copy V1.3 from 2. September 2016

EAC extraction logfile from 19. May 2017, 21:56

Karajan / Beethoven- Symphonies 1-9, Overtures 1951-1955 5

Used drive : PLEXTOR CD-R PREMIUM2 Adapter: 1 ID: 0

Read mode : Secure
Utilize accurate stream : Yes
Defeat audio cache : Yes
Make use of C2 pointers : No

Read offset correction : 30
Overread into Lead-In and Lead-Out : Yes
Fill up missing offset samples with silence : Yes
Delete leading and trailing silent blocks : No
Null samples used in CRC calculations : Yes
Used interface : Native Win32 interface for Win NT & 2000
Gap handling : Appended to previous track

Used output format : User Defined Encoder
Selected bitrate : 1024 kBit/s
Quality : High
Add ID3 tag : No
Command line compressor : C:\Program Files (x86)\Exact Audio Copy\Flac\flac.exe
Additional command line options : -8 -V -T "ARTIST=%artist%" -T "TITLE=%title%" -T "ALBUM=%albumtitle%" -T "DATE=%year%" -T "TRACKNUMBER=%tracknr%" -T "GENRE=%genre%" -T "PERFORMER=%albuminterpret%" -T "COMPOSER=%composer%" %haslyrics%–tag-from-file=LYRICS="%lyricsfile%"%haslyrics% -T "ALBUMARTIST=%albumartist%" -T "DISCNUMBER=%cdnumber%" -T "TOTALDISCS=%totalcds%" -T "TOTALTRACKS=%numtracks%" -T "COMMENT=%comment%" %source% -o %dest%


TOC of the extracted CD

Track | Start | Length | Start sector | End sector
––––––––––––––––––––––––––––-
1 | 0:00.00 | 8:38.40 | 0 | 38889
2 | 8:38.40 | 15:08.23 | 38890 | 107012
3 | 23:46.63 | 10:09.47 | 107013 | 152734
4 | 33:56.35 | 16:04.34 | 152735 | 225068
5 | 50:00.69 | 24:14.50 | 225069 | 334168


Track 1

Filename D:\Music\Ripping\Beethoven- Symphonies 1-9, Overtures 1951-1955 5\01 Egmont Ov, Op 84.wav

Pre-gap length 0:00:02.00

Peak level 78.5 %
Extraction speed 4.6 X
Track quality 99.9 %
Test CRC C8A03621
Copy CRC C8A03621
Accurately ripped (confidence 14) [7E708628] (AR v2)
Copy OK

Track 2

Filename D:\Music\Ripping\Beethoven- Symphonies 1-9, Overtures 1951-1955 5\02 001 Allegro ma non trorrpo, un poco maestoso.wav

Pre-gap length 0:00:03.78

Peak level 98.1 %
Extraction speed 5.1 X
Track quality 100.0 %
Test CRC 3AB017C3
Copy CRC 3AB017C3
Accurately ripped (confidence 14) [40F666D7] (AR v2)
Copy OK

Track 3

Filename D:\Music\Ripping\Beethoven- Symphonies 1-9, Overtures 1951-1955 5\03 002 Molto vivace- Presto.wav

Peak level 95.7 %
Extraction speed 5.0 X
Track quality 100.0 %
Test CRC CF33BFFB
Copy CRC CF33BFFB
Accurately ripped (confidence 14) [0F974BE5] (AR v2)
Copy OK

Track 4

Filename D:\Music\Ripping\Beethoven- Symphonies 1-9, Overtures 1951-1955 5\04 003 Adagio molto e cantabile- Andante moderato.wav

Peak level 80.7 %
Extraction speed 4.9 X
Track quality 99.9 %
Test CRC B5B0BA9A
Copy CRC B5B0BA9A
Accurately ripped (confidence 14) [2190F9FC] (AR v2)
Copy OK

Track 5

Filename D:\Music\Ripping\Beethoven- Symphonies 1-9, Overtures 1951-1955 5\05 004 Presto- Recitativo- Allegro assai.wav

Peak level 99.8 %
Extraction speed 5.3 X
Track quality 100.0 %
Test CRC FC9BA6D7
Copy CRC FC9BA6D7
Accurately ripped (confidence 14) [4C4F186A] (AR v2)
Copy OK


All tracks accurately ripped

No errors occurred

End of status report

–– CUETools DB Plugin V2.1.6

[CTDB TOCID: mt6lf0q83nhQDyeAUvcKp3h8uC8-] found
Submit result: mt6lf0q83nhQDyeAUvcKp3h8uC8- has been confirmed
Track | CTDB Status
1 | (40/42) Accurately ripped
2 | (42/42) Accurately ripped
3 | (42/42) Accurately ripped
4 | (42/42) Accurately ripped
5 | (40/42) Accurately ripped


==== Log checksum 090C77E782D1DD1FAE960A28012A12927F018CD0C0DB85293F9C3F66032079A5 ====


CD6
Exact Audio Copy V1.3 from 2. September 2016

EAC extraction logfile from 19. May 2017, 23:00

Karajan / Beethoven- Symphonies 1-9, Overtures 1951-1955 6

Used drive : PLEXTOR CD-R PREMIUM2 Adapter: 1 ID: 0

Read mode : Secure
Utilize accurate stream : Yes
Defeat audio cache : Yes
Make use of C2 pointers : No

Read offset correction : 30
Overread into Lead-In and Lead-Out : Yes
Fill up missing offset samples with silence : Yes
Delete leading and trailing silent blocks : No
Null samples used in CRC calculations : Yes
Used interface : Native Win32 interface for Win NT & 2000
Gap handling : Appended to previous track

Used output format : User Defined Encoder
Selected bitrate : 1024 kBit/s
Quality : High
Add ID3 tag : No
Command line compressor : C:\Program Files (x86)\Exact Audio Copy\Flac\flac.exe
Additional command line options : -8 -V -T "ARTIST=%artist%" -T "TITLE=%title%" -T "ALBUM=%albumtitle%" -T "DATE=%year%" -T "TRACKNUMBER=%tracknr%" -T "GENRE=%genre%" -T "PERFORMER=%albuminterpret%" -T "COMPOSER=%composer%" %haslyrics%–tag-from-file=LYRICS="%lyricsfile%"%haslyrics% -T "ALBUMARTIST=%albumartist%" -T "DISCNUMBER=%cdnumber%" -T "TOTALDISCS=%totalcds%" -T "TOTALTRACKS=%numtracks%" -T "COMMENT=%comment%" %source% -o %dest%


TOC of the extracted CD

Track | Start | Length | Start sector | End sector
––––––––––––––––––––––––––––-
1 | 0:00.00 | 15:04.55 | 0 | 67854
2 | 15:04.55 | 10:16.00 | 67855 | 114054
3 | 25:20.55 | 15:58.41 | 114055 | 185945
4 | 41:19.21 | 24:15.23 | 185946 | 295093


Track 1

Filename D:\Music\Ripping\Beethoven- Symphonies 1-9, Overtures 1951-1955 6\01 Symphony no. 9 in D minor, op. 125 ''Choral''- I. Allegro ma non troppo, un poco maestoso.wav

Pre-gap length 0:00:02.00

Peak level 74.2 %
Extraction speed 5.1 X
Track quality 100.0 %
Test CRC A5C5304C
Copy CRC A5C5304C
Accurately ripped (confidence 18) [CB8B6043] (AR v2)
Copy OK

Track 2

Filename D:\Music\Ripping\Beethoven- Symphonies 1-9, Overtures 1951-1955 6\02 Symphony no. 9 in D minor, op. 125 ''Choral''- II. Molto vivace - Presto.wav

Peak level 88.2 %
Extraction speed 5.0 X
Track quality 100.0 %
Test CRC DD636CAC
Copy CRC DD636CAC
Accurately ripped (confidence 18) [6F3E2DB7] (AR v2)
Copy OK

Track 3

Filename D:\Music\Ripping\Beethoven- Symphonies 1-9, Overtures 1951-1955 6\03 Symphony no. 9 in D minor, op. 125 ''Choral''- III. Adagio molto e cantabile - Andante moderato.wav

Pre-gap length 0:00:00.01

Peak level 60.3 %
Extraction speed 5.1 X
Track quality 100.0 %
Test CRC 728C2472
Copy CRC 728C2472
Accurately ripped (confidence 18) [B12DF867] (AR v2)
Copy OK

Track 4

Filename D:\Music\Ripping\Beethoven- Symphonies 1-9, Overtures 1951-1955 6\04 Symphony no. 9 in D minor, op. 125 ''Choral''- IV. Presto - Recitativo - Allegro assai.wav

Pre-gap length 0:00:00.01

Peak level 99.8 %
Extraction speed 5.3 X
Track quality 100.0 %
Test CRC C2414784
Copy CRC C2414784
Accurately ripped (confidence 18) [606AF19A] (AR v2)
Copy OK


All tracks accurately ripped

No errors occurred

End of status report

–– CUETools DB Plugin V2.1.6

[CTDB TOCID: KVCIPRlESbrROYzInsEZyBIKBwg-] found
Submit result: already submitted
Track | CTDB Status
1 | (51/52) Accurately ripped
2 | (52/52) Accurately ripped
3 | (52/52) Accurately ripped
4 | (52/52) Accurately ripped


==== Log checksum 217D192D469763D593983B78ED600693C4A5A806EDADD9EB5FB30F45E7C2EC08 ====


Herbert von Karajan, Philharmonia Orchestra - Beethoven: Symphonies Nos. 1-9 & Overtures (2014) (6 CDs Box Set)


Thanks to the original ripper.

**Follow My Music Blog**