Tags
Language
Tags

Herbert von Karajan, Philharmonia Orchestra - Mozart: Così fan tutte (1999)

Posted By: ArlegZ
Herbert von Karajan, Philharmonia Orchestra - Mozart: Così fan tutte (1999)

Herbert von Karajan, Philharmonia Orchestra - Mozart: Così fan tutte (1999)
EAC | FLAC | Image (Cue & Log) ~ 451 Mb | Total time: 63:46+58:57+38:17 | Scans included
Classical | Label: EMI Classics | 5 67064 2 | Recorded: 1955

Beethoven thought the libretto immoral, Wagner thought it trivial. It was Herbert von Karajan’s mentor and inspiration, the composer and conductor Richard Strauss, who brought Mozart’s Così fan tutte back centre stage in the early years of the 20th century, since when this exquisite, witty and subtly disturbing exploration of sexual politics has become one of Mozart’s best-loved works. The present set preserves one of its most admired recordings, originally released in the autumn of 1955 on the eve of the bicentenary of Mozart’s birth. Gramophone described it as a ‘superlative issue’, perfectly staged for the microphone with an ideal cast and conducting and playing of the finest quality. ‘Listening with friends in my music room’, wrote the critic Alec Robertson, ‘gave the impression that by some miracle the opera was being performed there to a scale proportionate to its size, enabling us to savour the exquisite music, without any of the usual distractions.’

Performer:
Fiordiligi - Elisabeth Schwarzkopf
Dorabella - Nan Merriman
Guglielmo - Rolando Panerai
Ferrando - Léopold Simoneau
Despina - Lisa Otto
Don Alfonso - Sesto Bruscantini
Philharmonia Orchestra & Chorus
Conductor - Herbert von Karajan

Track List:
CD1:
01. Overture
02. Atto I. Scene 1: Trio: La mia Dorabella capace non è
03. Scene 1: Recitative: Cessate di
04. Scene 1: Trio: È la fede delle femmine
05. Scene 1: Recitative: Scioccherie di poeti
06. Scene 2: Trio: Una bella serenata
07. Scene 2: Duet: Ah guarda, sorella
08. Scene 2: Recitative: Mi par, che stamattina
09. Scene 2: Aria: Babaro fato!… Vorrei dir, e cor non ho
10. Scene 2: Recitative: Stelle! Per carità, signor
11. Scene 2: Quintet: Sento, oddio, che questo piede
12. Scene 2: Recitative: O cielo, questo è il tamburino funesto
13. Scene 2: Bella vita militar!
14. Scene 2: Recitative: Non v'è più tempo
15. Scene 2: Recitative: Muoio d'affanno!
16. Scene 2: Recitative: Oh Dei! Come veloce se ne va quella barca!
17. Scene 2: Trio: Soave sia il vento
18. Scene 2: Quante smorfie, quante buffonerie!
19. Scene 3: Recitative: Che vita maledetta
20. Scene 3: Ah, scostati!
21. Scene 3: Recitative: Signora Dorabella, Signora Fiordiligi
22. Scene 3: Aria: In uomini, in soldati sperare fedeltà?
23. Scene 3: Recitative: Despinetta! – Chi batte?
24. Scene 3: Sextet: Alla bella Despinetta
25. Scene 3: Recitative: Oh ciel! Mirate
26. Scene 3: Recitative: Come scoglio immoto resta
27. Scene 3: Recitative: Ah non partite!
28. Scene 3: Aria: Non siate ritrosi
29. Scene 3: Trio: E voi ridete?
30. Scene 3: E avete ancora coraggio di fiatar?
31. Scene 3: Aria: Un'aura amorosa del nostro tesoro
32. Scene 3: E come credi che l'affar finirà?
CD2:
01. Scene 4: Finale: Ah, che tutta in un momento
02. Scene 4: Si mora, sì, si mora
03. Scene 4: Eccovi il medico
04. Scene 4: Dove son? Che loco è questo?
05. Scene 4: Dammi un bacio, o mio tesoro
06. Atto II. Scene 1: Recitative: Andate là, che siete due bizzarre ragazze!
07. Scene 1: Aria: Una donna a quindici anni
08. Scene 1: Recitative: Sorella, cosa dici?
09. Scene 1: Duet: Prenderò quel brunettino
10. Scene 2: Duet: Secondate, aurette amiche
11. Scene 2: Recitative: Cos'è tal mascherata?
12. Scene 2: Quartet: La mano a me date
13. Scene 2: Recitative: Oh, che bella giornata!
14. Scene 2: Duet: Il core vi dono
15. Scene 2: Recitative: Ei parte. Senti! Ah, no!
16. Scene 2: Rondo: Per pietà, ben mio, perdona
17. Scene 2: Recitative: Amico, abbiamo vinto!
18. Scene 2: Aria: Donne mie, la fate a tanti a tanti
19. Scene 2: Recitative: In qual fiero contrasto
20. Scene 2: Cavatina: Tradito, schernito
21. Scene 2: Recitative: Bravo, questa è costanza
CD3:
01. Scene 3: Recitative: Ora vedo che siete una donna di garbo
02. Scene 3: Aria: È amore un ladroncello
03. Scene 3: Recitative: Come tutto congiura
04. Scene 3: Duet: Fra gli amplessi in pochi istanti
05. Scene 3: Recitative: Ah, poveretto me, cosa ho veduto!
06. Scene 3: Andante: Tutti accusan le donne
07. Scene 3: Recitative: Vittoria, padroncini!
08. Scene 4: Finale: Fate presto, o cari amici
09. Scene 4: Benedetti i doppi coniugi
10. Scene 4: E nel tuo, nel mio bicchiero
11. Scene 4: Miei Signori, tutto è fatto
12. Scene 4: Bella vita militar
13. Scene 4: Sani e salvi agli amplessi amorosi
14. Scene 4: Non Signor, non e un notaio
15. Scene 4: Ah, Signor, son rea di morte
16. Scene 4: A voi s'inchina bella damina
17. Scene 4: Fortunato l'uom che prende


Exact Audio Copy V1.3 from 2. September 2016

EAC extraction logfile from 7. January 2020, 14:39

Herbert von Karajan / Mozart: Così fan tutte (Disc 1)

Used drive : HL-DT-STDVDRAM GH24NSD5 Adapter: 1 ID: 0

Read mode : Secure
Utilize accurate stream : Yes
Defeat audio cache : Yes
Make use of C2 pointers : No

Read offset correction : 6
Overread into Lead-In and Lead-Out : No
Fill up missing offset samples with silence : Yes
Delete leading and trailing silent blocks : No
Null samples used in CRC calculations : Yes
Used interface : Native Win32 interface for Win NT & 2000

Used output format : User Defined Encoder
Selected bitrate : 896 kBit/s
Quality : High
Add ID3 tag : No
Command line compressor : C:\Program Files (x86)\Exact Audio Copy\FLAC\FLAC.EXE
Additional command line options : -6 -V -T "ARTIST=%artist%" -T "TITLE=%title%" -T "ALBUM=%albumtitle%" -T "DATE=%year%" -T "TRACKNUMBER=%tracknr%" -T "GENRE=%genre%" -T "COMMENT=%comment%" -T "BAND=%albuminterpret%" -T "ALBUMARTIST=%albuminterpret%" -T "COMPOSER=%composer%" %haslyrics%–tag-from-file=LYRICS="%lyricsfile%"%haslyrics% -T "DISCNUMBER=%cdnumber%" -T "TOTALDISCS=%totalcds%" -T "TOTALTRACKS=%numtracks%" %hascover%–picture="%coverfile%"%hascover% %source% -o %dest%


TOC of the extracted CD

Track | Start | Length | Start sector | End sector
––––––––––––––––––––––––––––-
1 | 0:00.00 | 4:11.40 | 0 | 18864
2 | 4:11.40 | 1:48.40 | 18865 | 27004
3 | 6:00.05 | 0:49.22 | 27005 | 30701
4 | 6:49.27 | 1:18.25 | 30702 | 36576
5 | 8:07.52 | 0:51.68 | 36577 | 40469
6 | 8:59.45 | 2:22.17 | 40470 | 51136
7 | 11:21.62 | 4:42.10 | 51137 | 72296
8 | 16:03.72 | 0:33.15 | 72297 | 74786
9 | 16:37.12 | 0:41.45 | 74787 | 77906
10 | 17:18.57 | 0:41.43 | 77907 | 81024
11 | 18:00.25 | 4:38.67 | 81025 | 101941
12 | 22:39.17 | 0:22.53 | 101942 | 103644
13 | 23:01.70 | 1:50.10 | 103645 | 111904
14 | 24:52.05 | 0:25.17 | 111905 | 113796
15 | 25:17.22 | 2:44.13 | 113797 | 126109
16 | 28:01.35 | 0:37.05 | 126110 | 128889
17 | 28:38.40 | 3:20.47 | 128890 | 143936
18 | 31:59.12 | 0:52.63 | 143937 | 147899
19 | 32:52.00 | 0:53.32 | 147900 | 151906
20 | 33:45.32 | 3:44.38 | 151907 | 168744
21 | 37:29.70 | 1:05.47 | 168745 | 173666
22 | 38:35.42 | 2:19.10 | 173667 | 184101
23 | 40:54.52 | 0:48.40 | 184102 | 187741
24 | 41:43.17 | 4:40.48 | 187742 | 208789
25 | 46:23.65 | 2:44.07 | 208790 | 221096
26 | 49:07.72 | 5:44.28 | 221097 | 246924
27 | 54:52.25 | 0:27.65 | 246925 | 249014
28 | 55:20.15 | 1:28.67 | 249015 | 255681
29 | 56:49.07 | 1:00.65 | 255682 | 260246
30 | 57:49.72 | 0:24.03 | 260247 | 262049
31 | 58:14.00 | 4:35.45 | 262050 | 282719
32 | 62:49.45 | 0:55.00 | 282720 | 286844


Range status and errors

Selected range

Filename I:\Rips\Mozart WA - Così fan tutte - Karajan 1955\CD1\Herbert von Karajan - Mozart- Così fan tutte (Disc 1).wav

Peak level 86.6 %
Extraction speed 7.5 X
Range quality 100.0 %
Test CRC 2CFB026A
Copy CRC 2CFB026A
Copy OK

No errors occurred


AccurateRip summary

Track 1 accurately ripped (confidence 19) [3ABACA2E] (AR v2)
Track 2 accurately ripped (confidence 19) [E44655FF] (AR v2)
Track 3 accurately ripped (confidence 19) [20948B51] (AR v2)
Track 4 accurately ripped (confidence 19) [750C15F0] (AR v2)
Track 5 accurately ripped (confidence 19) [B2753974] (AR v2)
Track 6 accurately ripped (confidence 19) [8CD9A6B2] (AR v2)
Track 7 accurately ripped (confidence 19) [0E70FC67] (AR v2)
Track 8 accurately ripped (confidence 19) [54F42E62] (AR v2)
Track 9 accurately ripped (confidence 19) [655A63CC] (AR v2)
Track 10 accurately ripped (confidence 19) [A9BDAC26] (AR v2)
Track 11 accurately ripped (confidence 19) [8B059012] (AR v2)
Track 12 accurately ripped (confidence 19) [4FBEADEF] (AR v2)
Track 13 accurately ripped (confidence 19) [62E24D86] (AR v2)
Track 14 accurately ripped (confidence 19) [D6215807] (AR v2)
Track 15 accurately ripped (confidence 19) [541306E9] (AR v2)
Track 16 accurately ripped (confidence 19) [39EEBEAA] (AR v2)
Track 17 accurately ripped (confidence 19) [96CD04B5] (AR v2)
Track 18 accurately ripped (confidence 19) [E7081CE5] (AR v2)
Track 19 accurately ripped (confidence 19) [A623A802] (AR v2)
Track 20 accurately ripped (confidence 19) [2F8C8B5F] (AR v2)
Track 21 accurately ripped (confidence 19) [C5FEB28D] (AR v2)
Track 22 accurately ripped (confidence 19) [4AA57675] (AR v2)
Track 23 accurately ripped (confidence 19) [13B7BE40] (AR v2)
Track 24 accurately ripped (confidence 19) [F0946401] (AR v2)
Track 25 accurately ripped (confidence 19) [F1B5ACA6] (AR v2)
Track 26 accurately ripped (confidence 19) [D459B907] (AR v2)
Track 27 accurately ripped (confidence 19) [1467B363] (AR v2)
Track 28 accurately ripped (confidence 19) [99E9ACA6] (AR v2)
Track 29 accurately ripped (confidence 19) [62A8E3E8] (AR v2)
Track 30 accurately ripped (confidence 19) [A3068D79] (AR v2)
Track 31 accurately ripped (confidence 19) [93C2B7F6] (AR v2)
Track 32 accurately ripped (confidence 20) [9610498D] (AR v2)

All tracks accurately ripped

End of status report

–– CUETools DB Plugin V2.1.6

[CTDB TOCID: 2YhMH_r0FRced7PA0Wiy_SHp9fE-] found
Submit result: 2YhMH_r0FRced7PA0Wiy_SHp9fE- has been confirmed
Track | CTDB Status
1 | (50/50) Accurately ripped
2 | (50/50) Accurately ripped
3 | (50/50) Accurately ripped
4 | (50/50) Accurately ripped
5 | (50/50) Accurately ripped
6 | (50/50) Accurately ripped
7 | (50/50) Accurately ripped
8 | (50/50) Accurately ripped
9 | (50/50) Accurately ripped
10 | (50/50) Accurately ripped
11 | (50/50) Accurately ripped
12 | (50/50) Accurately ripped
13 | (50/50) Accurately ripped
14 | (50/50) Accurately ripped
15 | (50/50) Accurately ripped
16 | (50/50) Accurately ripped
17 | (50/50) Accurately ripped
18 | (50/50) Accurately ripped
19 | (50/50) Accurately ripped
20 | (50/50) Accurately ripped
21 | (50/50) Accurately ripped
22 | (50/50) Accurately ripped
23 | (50/50) Accurately ripped
24 | (50/50) Accurately ripped
25 | (50/50) Accurately ripped
26 | (50/50) Accurately ripped
27 | (50/50) Accurately ripped
28 | (50/50) Accurately ripped
29 | (50/50) Accurately ripped
30 | (50/50) Accurately ripped
31 | (48/50) Accurately ripped
32 | (49/50) Accurately ripped


==== Log checksum 45419519CD5F8437C5FEAABA8BE0DDA959E3E791C4823C2B763CA6F77E47A7F1 ====


Exact Audio Copy V1.3 from 2. September 2016

EAC extraction logfile from 7. January 2020, 16:23

Herbert von Karajan / Mozart: Così fan tutte (Disc 2)

Used drive : HL-DT-STDVDRAM GH24NSD5 Adapter: 1 ID: 0

Read mode : Secure
Utilize accurate stream : Yes
Defeat audio cache : Yes
Make use of C2 pointers : No

Read offset correction : 6
Overread into Lead-In and Lead-Out : No
Fill up missing offset samples with silence : Yes
Delete leading and trailing silent blocks : No
Null samples used in CRC calculations : Yes
Used interface : Native Win32 interface for Win NT & 2000

Used output format : User Defined Encoder
Selected bitrate : 896 kBit/s
Quality : High
Add ID3 tag : No
Command line compressor : C:\Program Files (x86)\Exact Audio Copy\FLAC\FLAC.EXE
Additional command line options : -6 -V -T "ARTIST=%artist%" -T "TITLE=%title%" -T "ALBUM=%albumtitle%" -T "DATE=%year%" -T "TRACKNUMBER=%tracknr%" -T "GENRE=%genre%" -T "COMMENT=%comment%" -T "BAND=%albuminterpret%" -T "ALBUMARTIST=%albuminterpret%" -T "COMPOSER=%composer%" %haslyrics%–tag-from-file=LYRICS="%lyricsfile%"%haslyrics% -T "DISCNUMBER=%cdnumber%" -T "TOTALDISCS=%totalcds%" -T "TOTALTRACKS=%numtracks%" %hascover%–picture="%coverfile%"%hascover% %source% -o %dest%


TOC of the extracted CD

Track | Start | Length | Start sector | End sector
––––––––––––––––––––––––––––-
1 | 0:00.00 | 3:12.00 | 0 | 14399
2 | 3:12.00 | 5:10.05 | 14400 | 37654
3 | 8:22.05 | 3:08.30 | 37655 | 51784
4 | 11:30.35 | 3:25.02 | 51785 | 67161
5 | 14:55.37 | 3:56.03 | 67162 | 84864
6 | 18:51.40 | 0:16.25 | 84865 | 86089
7 | 19:07.65 | 3:09.72 | 86090 | 100336
8 | 22:17.62 | 0:56.33 | 100337 | 104569
9 | 23:14.20 | 3:07.62 | 104570 | 118656
10 | 26:22.07 | 3:06.70 | 118657 | 132676
11 | 29:29.02 | 0:35.30 | 132677 | 135331
12 | 30:04.32 | 2:35.53 | 135332 | 147009
13 | 32:40.10 | 1:37.57 | 147010 | 154341
14 | 34:17.67 | 4:21.20 | 154342 | 173936
15 | 38:39.12 | 1:40.48 | 173937 | 181484
16 | 40:19.60 | 7:34.35 | 181485 | 215569
17 | 47:54.20 | 2:52.72 | 215570 | 228541
18 | 50:47.17 | 3:01.35 | 228542 | 242151
19 | 53:48.52 | 1:36.65 | 242152 | 249416
20 | 55:25.42 | 2:03.50 | 249417 | 258691
21 | 57:29.17 | 1:26.23 | 258692 | 265164


Range status and errors

Selected range

Filename I:\Rips\Mozart WA - Così fan tutte - Karajan 1955\CD2\Herbert von Karajan - Mozart- Così fan tutte (Disc 2).wav

Peak level 86.6 %
Extraction speed 1.8 X
Range quality 99.9 %
Test CRC 91884CFD
Copy CRC 71CE8CBE
Copy OK

No errors occurred


AccurateRip summary

Track 1 accurately ripped (confidence 20) [78EC1E2E] (AR v2)
Track 2 accurately ripped (confidence 20) [D3D15683] (AR v2)
Track 3 accurately ripped (confidence 20) [80080A7C] (AR v2)
Track 4 accurately ripped (confidence 20) [60EB4CED] (AR v2)
Track 5 accurately ripped (confidence 20) [5D5F0DC1] (AR v2)
Track 6 accurately ripped (confidence 20) [43F13F27] (AR v2)
Track 7 accurately ripped (confidence 20) [6F4672F6] (AR v2)
Track 8 accurately ripped (confidence 20) [850F86D9] (AR v2)
Track 9 accurately ripped (confidence 20) [E82AA969] (AR v2)
Track 10 accurately ripped (confidence 20) [BF58CB83] (AR v2)
Track 11 accurately ripped (confidence 20) [47ED5F65] (AR v2)
Track 12 accurately ripped (confidence 20) [B51D42F4] (AR v2)
Track 13 accurately ripped (confidence 20) [FE0712C6] (AR v2)
Track 14 accurately ripped (confidence 20) [65915CB3] (AR v2)
Track 15 accurately ripped (confidence 20) [ED3B0B7A] (AR v2)
Track 16 accurately ripped (confidence 20) [8981438C] (AR v2)
Track 17 accurately ripped (confidence 20) [23C2E1EA] (AR v2)
Track 18 accurately ripped (confidence 20) [F664D590] (AR v2)
Track 19 accurately ripped (confidence 20) [4538A57F] (AR v2)
Track 20 cannot be verified as accurate (confidence 18) [7CD71715], AccurateRip returned [64A6BDE1] (AR v2)
Track 21 accurately ripped (confidence 20) [76003EB8] (AR v2)

20 track(s) accurately ripped
1 track(s) could not be verified as accurate

Some tracks could not be verified as accurate

End of status report

–– CUETools DB Plugin V2.1.6

[CTDB TOCID: pDvEfyVt2VUf5H66QashSzR_pLg-] found
Submit result: insufficient quality
Track | CTDB Status
1 | (47/47) Accurately ripped
2 | (47/47) Accurately ripped
3 | (47/47) Accurately ripped
4 | (47/47) Accurately ripped
5 | (47/47) Accurately ripped
6 | (47/47) Accurately ripped
7 | (47/47) Accurately ripped
8 | (47/47) Accurately ripped
9 | (47/47) Accurately ripped
10 | (47/47) Accurately ripped
11 | (47/47) Accurately ripped
12 | (47/47) Accurately ripped
13 | (47/47) Accurately ripped
14 | (46/47) Accurately ripped
15 | (47/47) Accurately ripped
16 | (47/47) Accurately ripped
17 | (47/47) Accurately ripped
18 | (47/47) Accurately ripped
19 | (47/47) Accurately ripped
20 | (44/47) Differs in 146 samples @01:19:51-01:19:52,01:20:15,01:28:17-01:28:18
21 | (46/47) Accurately ripped
If you are sure that your rip contains errors, you can use CUETools to repair it.


==== Log checksum 29E658EF944257BC33DB10F9A0169D94FE09CC7AE870D39DCC1BE76CF832E79E ====


Exact Audio Copy V1.3 from 2. September 2016

EAC extraction logfile from 7. January 2020, 16:56

Herbert von Karajan / Mozart: Così fan tutte (Disc 3)

Used drive : HL-DT-STDVDRAM GH24NSD5 Adapter: 1 ID: 0

Read mode : Secure
Utilize accurate stream : Yes
Defeat audio cache : Yes
Make use of C2 pointers : No

Read offset correction : 6
Overread into Lead-In and Lead-Out : No
Fill up missing offset samples with silence : Yes
Delete leading and trailing silent blocks : No
Null samples used in CRC calculations : Yes
Used interface : Native Win32 interface for Win NT & 2000

Used output format : User Defined Encoder
Selected bitrate : 896 kBit/s
Quality : High
Add ID3 tag : No
Command line compressor : C:\Program Files (x86)\Exact Audio Copy\FLAC\FLAC.EXE
Additional command line options : -6 -V -T "ARTIST=%artist%" -T "TITLE=%title%" -T "ALBUM=%albumtitle%" -T "DATE=%year%" -T "TRACKNUMBER=%tracknr%" -T "GENRE=%genre%" -T "COMMENT=%comment%" -T "BAND=%albuminterpret%" -T "ALBUMARTIST=%albuminterpret%" -T "COMPOSER=%composer%" %haslyrics%–tag-from-file=LYRICS="%lyricsfile%"%haslyrics% -T "DISCNUMBER=%cdnumber%" -T "TOTALDISCS=%totalcds%" -T "TOTALTRACKS=%numtracks%" %hascover%–picture="%coverfile%"%hascover% %source% -o %dest%


TOC of the extracted CD

Track | Start | Length | Start sector | End sector
––––––––––––––––––––––––––––-
1 | 0:00.00 | 1:24.27 | 0 | 6326
2 | 1:24.27 | 3:09.48 | 6327 | 20549
3 | 4:34.00 | 1:46.35 | 20550 | 28534
4 | 6:20.35 | 6:28.60 | 28535 | 57694
5 | 12:49.20 | 1:23.05 | 57695 | 63924
6 | 14:12.25 | 1:01.40 | 63925 | 68539
7 | 15:13.65 | 0:22.05 | 68540 | 70194
8 | 15:35.70 | 1:41.40 | 70195 | 77809
9 | 17:17.35 | 5:18.00 | 77810 | 101659
10 | 22:35.35 | 2:03.25 | 101660 | 110909
11 | 24:38.60 | 2:00.15 | 110910 | 119924
12 | 26:39.00 | 1:54.02 | 119925 | 128476
13 | 28:33.02 | 2:09.70 | 128477 | 138221
14 | 30:42.72 | 1:21.45 | 138222 | 144341
15 | 32:04.42 | 1:21.13 | 144342 | 150429
16 | 33:25.55 | 3:05.30 | 150430 | 164334
17 | 36:31.10 | 1:44.30 | 164335 | 172164


Range status and errors

Selected range

Filename I:\Rips\Mozart WA - Così fan tutte - Karajan 1955\CD3\Herbert von Karajan - Mozart- Così fan tutte (Disc 3).wav

Peak level 85.2 %
Extraction speed 1.6 X
Range quality 100.0 %
Test CRC 429975B5
Copy CRC 429975B5
Copy OK

No errors occurred


AccurateRip summary

Track 1 accurately ripped (confidence 21) [354624ED] (AR v2)
Track 2 accurately ripped (confidence 21) [605C874C] (AR v2)
Track 3 accurately ripped (confidence 21) [61F88ECB] (AR v2)
Track 4 accurately ripped (confidence 20) [8CFA7852] (AR v2)
Track 5 accurately ripped (confidence 20) [EF20F830] (AR v2)
Track 6 accurately ripped (confidence 20) [53E09FA3] (AR v2)
Track 7 accurately ripped (confidence 20) [F0DE84DF] (AR v2)
Track 8 accurately ripped (confidence 20) [C91096A8] (AR v2)
Track 9 accurately ripped (confidence 20) [23D5F7BB] (AR v2)
Track 10 accurately ripped (confidence 20) [0D888697] (AR v2)
Track 11 accurately ripped (confidence 20) [D0BF5D38] (AR v2)
Track 12 accurately ripped (confidence 20) [D6E573DB] (AR v2)
Track 13 accurately ripped (confidence 20) [48958EF7] (AR v2)
Track 14 accurately ripped (confidence 20) [936A1BB4] (AR v2)
Track 15 accurately ripped (confidence 19) [FAF8A909] (AR v2)
Track 16 accurately ripped (confidence 20) [4823DDDD] (AR v2)
Track 17 accurately ripped (confidence 20) [1FB950D8] (AR v2)

All tracks accurately ripped

End of status report

–– CUETools DB Plugin V2.1.6

[CTDB TOCID: KDdibp2e8NrLvJTwRx6zg1YwJCg-] found
Submit result: KDdibp2e8NrLvJTwRx6zg1YwJCg- has been confirmed
Track | CTDB Status
1 | (49/50) Accurately ripped
2 | (39/50) Accurately ripped, or (10/50) differs in 2 samples @02:16:11
3 | (49/50) Accurately ripped
4 | (49/50) Accurately ripped
5 | (49/50) Accurately ripped
6 | (49/50) Accurately ripped
7 | (49/50) Accurately ripped
8 | (49/50) Accurately ripped
9 | (48/50) Accurately ripped
10 | (49/50) Accurately ripped
11 | (49/50) Accurately ripped
12 | (49/50) Accurately ripped
13 | (49/50) Accurately ripped
14 | (49/50) Accurately ripped
15 | (49/50) Accurately ripped
16 | (49/50) Accurately ripped
17 | (50/50) Accurately ripped


==== Log checksum 792A6D99EE30D27671AD87857ACDBA40373167A3099EA4B42448C007C1E81D68 ====

Herbert von Karajan, Philharmonia Orchestra - Mozart: Così fan tutte (1999)

Thanks to the original releaser