Subcategories

Herman Frank - Fight The Fear (2019)

Posted By: gribovar
Herman Frank - Fight The Fear (2019)

Herman Frank - Fight The Fear (2019)
EAC Rip | FLAC (image+.cue+log) - 538 MB | Covers - 53 MB
Genre: Heavy Metal | RAR 3% Rec. | Label: AFM Records (AFM 680-9)

Introducing Heavy Metal veteran Herman Frank to the crowd is just meaningless like carry coals to Newcastle. The guitarist has been an integral part of the German metal scene since the early 80s. From Accept to Victory to his solo project started in 2009 and his work as a producer. With the first three albums "Loyal To None", "Right In The Guts" and "The Devils Ride Out", Frank and his comrades-in-arms are causing storms of enthusiasm in both the press and the fans.
And the fourth album "Fight The Fear", cast in the same mold, will not change that. Together with Masterplan front vocalist Rick Altzi, guitarist Heiko Schröder, former Rage drummer André Hilgers and Jaded Heart bassist Michael Müller, the musicians show that this is the perfect teamwork for a close-knit band instead of a mere one-man show of the name giver. With razor-sharp riffs, sublime, hell for leather solos, consistently delivered high-class vocals between melody and heaviness, and a rhythm section, that drives every single song forward like a clockwork, Herman Frank presents a flawless metal album, without even a single second of boredom.
Tracklist:
01. Until the End
02. Fear
03. Terror
04. Sinners
05. Hatred
06. Hail & Row
07. Hitman
08. Stay Down
09. Rock You
10. Don't Cross the Line
11. Are You Ready
12. Wings of Destiny
13. Waiting for the Night (Bonus)
14. Lost in Heaven

Total time: 01:08:57

Exact Audio Copy V1.3 from 2. September 2016

EAC extraction logfile from 16. February 2019, 16:37

Herman Frank / Fight the Fear

Used drive : HP DVD Writer 1170d Adapter: 1 ID: 1

Read mode : Secure
Utilize accurate stream : Yes
Defeat audio cache : Yes
Make use of C2 pointers : No

Read offset correction : 6
Overread into Lead-In and Lead-Out : No
Fill up missing offset samples with silence : Yes
Delete leading and trailing silent blocks : No
Null samples used in CRC calculations : Yes
Used interface : Native Win32 interface for Win NT & 2000

Used output format : User Defined Encoder
Selected bitrate : 1024 kBit/s
Quality : High
Add ID3 tag : No
Command line compressor : C:\Program Files (x86)\Exact Audio Copy\Flac\flac.exe
Additional command line options : -V -8 -T "Date=%year%" -T "Genre=%genre%" %source%


TOC of the extracted CD

Track | Start | Length | Start sector | End sector
––––––––––––––––––––––––––––-
1 | 0:00.00 | 4:40.54 | 0 | 21053
2 | 4:40.54 | 4:49.01 | 21054 | 42729
3 | 9:29.55 | 5:08.60 | 42730 | 65889
4 | 14:38.40 | 5:36.18 | 65890 | 91107
5 | 20:14.58 | 5:28.48 | 91108 | 115755
6 | 25:43.31 | 5:52.64 | 115756 | 142219
7 | 31:36.20 | 4:13.35 | 142220 | 161229
8 | 35:49.55 | 3:50.27 | 161230 | 178506
9 | 39:40.07 | 4:27.62 | 178507 | 198593
10 | 44:07.69 | 4:05.57 | 198594 | 217025
11 | 48:13.51 | 4:31.42 | 217026 | 237392
12 | 52:45.18 | 6:24.65 | 237393 | 266257
13 | 59:10.08 | 4:24.45 | 266258 | 286102
14 | 63:34.53 | 5:22.54 | 286103 | 310306


Range status and errors

Selected range

Filename C:\EAC\ungern666\Herman Frank - Fight the Fear.wav

Peak level 99.9 %
Extraction speed 6.6 X
Range quality 100.0 %
Test CRC 3BF6642E
Copy CRC 3BF6642E
Copy OK

No errors occurred


AccurateRip summary

Track 1 not present in database
Track 2 not present in database
Track 3 not present in database
Track 4 not present in database
Track 5 not present in database
Track 6 not present in database
Track 7 not present in database
Track 8 not present in database
Track 9 not present in database
Track 10 not present in database
Track 11 not present in database
Track 12 not present in database
Track 13 not present in database
Track 14 not present in database

None of the tracks are present in the AccurateRip database

End of status report

–– CUETools DB Plugin V2.1.6

[CTDB TOCID: 32iSlOfmvcYKQsSpYPTVr.2Zaeg-] found
Submit result: 32iSlOfmvcYKQsSpYPTVr.2Zaeg- has been confirmed
Track | CTDB Status
1 | (4/4) Accurately ripped
2 | (4/4) Accurately ripped
3 | (4/4) Accurately ripped
4 | (4/4) Accurately ripped
5 | (4/4) Accurately ripped
6 | (4/4) Accurately ripped
7 | (4/4) Accurately ripped
8 | (4/4) Accurately ripped
9 | (4/4) Accurately ripped
10 | (4/4) Accurately ripped
11 | (4/4) Accurately ripped
12 | (4/4) Accurately ripped
13 | (4/4) Accurately ripped
14 | (4/4) Accurately ripped


==== Log checksum 9E04C441E97537DC1E0B9E0ED8EDCC3EA4F224B422E9436C92B468D6403D4EDE ====

[CUETools log; Date: 15.03.2019 3:07:12; Version: 2.1.4]
[CTDB TOCID: 32iSlOfmvcYKQsSpYPTVr.2Zaeg-] found.
Track | CTDB Status
1 | (13/13) Accurately ripped
2 | (13/13) Accurately ripped
3 | (13/13) Accurately ripped
4 | (13/13) Accurately ripped
5 | (13/13) Accurately ripped
6 | (13/13) Accurately ripped
7 | (13/13) Accurately ripped
8 | (13/13) Accurately ripped
9 | (13/13) Accurately ripped
10 | (13/13) Accurately ripped
11 | (13/13) Accurately ripped
12 | (13/13) Accurately ripped
13 | (13/13) Accurately ripped
14 | (13/13) Accurately ripped
[AccurateRip ID: 00239de0-017ab615-d510290e] found.
Track [ CRC | V2 ] Status
01 [0dda47f7|ad42f4dc] (0+1/1) Accurately ripped
02 [8d257eb5|81344ab4] (0+1/1) Accurately ripped
03 [c6d51848|93c13eaf] (0+1/1) Accurately ripped
04 [31ea3c85|542c3f4f] (0+1/1) Accurately ripped
05 [b3c4f6c9|5fad5708] (0+1/1) Accurately ripped
06 [5156d3da|7ba9c5fa] (0+1/1) Accurately ripped
07 [0d583d7b|e81b2531] (0+1/1) Accurately ripped
08 [2d6365c4|a195c37f] (0+1/1) Accurately ripped
09 [4c44a8ff|bdf31680] (0+1/1) Accurately ripped
10 [90d345db|849d546b] (0+1/1) Accurately ripped
11 [dbb43ce5|724927f0] (0+1/1) Accurately ripped
12 [10ead5ec|e621889a] (0+1/1) Accurately ripped
13 [3bde617d|3b5ae2da] (0+1/1) Accurately ripped
14 [a2ff78a3|384e7ede] (0+1/1) Accurately ripped

Track Peak [ CRC32 ] [W/O NULL] [ LOG ]
– 99,9 [3BF6642E] [09B00377] CRC32
01 99,9 [043A0476] [D00C3896]
02 99,9 [F46AE29A] [724D448E]
03 99,9 [CAF25ECB] [A0B4C7AC]
04 99,9 [A334B685] [5B1BA334]
05 99,9 [FA2436F6] [9FC4DD06]
06 99,9 [72307732] [85504393]
07 99,9 [2900713E] [BA2F5143]
08 99,9 [A96D2D91] [E724AE07]
09 99,9 [3FE13BCB] [0B43724B]
10 99,9 [FDC098EA] [DE7E8FDC]
11 99,9 [0C8D9070] [F3F95624]
12 99,9 [B248F1E9] [E10EC0E6]
13 99,9 [8D6D7984] [4B904A33]
14 99,9 [1B988F19] [FB9E611A]

Thanks to ungern666