Subcategories

Rheinische Kantorei; Das Kleine Konzert; Hermann Max - Franz Tunder: Concerti (2004)

Posted By: Designol
Rheinische Kantorei; Das Kleine Konzert; Hermann Max - Franz Tunder: Concerti (2004)

Franz Tunder: Concerti (2004)
Rheinische Kantorei; Das Kleine Konzert; Hermann Max, conductor

EAC | FLAC | Image (Cue&Log) ~ 299 Mb | Mp3 (CBR320) ~ 167 Mb | Scans included
Classical, Baroque | Label: CPO | # cpo999943-2 | Time: 01:08:32

Although his name might not rate very highly on the recognition meter even of classical music buffs, Franz Tunder was a consequential entity in the early history of the German Baroque. Tunder served as organist at the Marienkirche in Lübeck from 1641 to his death in 1667, and during that time instituted the Abendmusiken, the first series of public concerts to take place in Germany. Seventeen vocal "concertos" exist from Tunder's pen and they were created for these special events; little more than half of them appear on this generous and well-performed CPO disc, Franz Tunder: Concerti.

Conductor Hermann Max leads Das Kleine Konzert and the singing group Rheinische Kantorei in 10 concerti, which uses a variety of singers in frontline combinations. Tunder must have had some good basses in his chorus, as they have most of the hardest music in the Concerti, and five of these ten works are sung by bass or basses alone. Both men used here, Ekkehard Abele and Yoshitaka Ogasawara, do an excellent job. The string parts are crisp and do not dawdle, and Max never allows the music to get too grandiose, wisely keeping it within the boundaries of the chamber idiom to which it belongs. The music is never ornately busy and has a relaxed, soothing effect.

If one is already fond of the vocal music of Johann Rosenmüller or Dietrich Buxtehude, then Franz Tunder: Concerti will be of immediate appeal. The opportunities to imbibe at Tunder's particular spring are unfortunately quite limited, and the performances here are completely satisfactory. Therefore, if the interest is there, one should not let this one get away.

Review by Uncle Dave Lewis, Allmusic.com

Franz Tunder at Allmusic
Franz Tunder at Wiki

Rheinische Kantorei
Das Kleine Konzert
Hermann Max, conductor

Tracklist:

Franz Tunder (1614-1667)

Concerti:

01. Nisi Dominus aedificaverit (7:48)
02. Helft mir Gott's Güte preisen (4:47)
03. Da mihi Domine (8:04)
04. Wend' ab deinen Zorn, lieber Herr, mit Gnaden (9:15)
05. Herr, nun lässest du deinen Diener (7:30)
06. An Wasserflüssen Babylon (3:11)
07. Nisi Dominus aedificaverit (9:09)
08. O Jesu dulcissime (4:56)
09. Eine feste Burg ist unser Gott (9:20)
10. Salve coelestis pater (4:32)


Exact Audio Copy V1.1 from 23. June 2015

EAC extraction logfile from 26. March 2017, 1:36

Rheinische Kantorei, Das Kleine Konzert, Hermann Max / Tunder - Concerti

Used drive : HL-DT-STDVDRAM GU70N Adapter: 1 ID: 0

Read mode : Secure
Utilize accurate stream : Yes
Defeat audio cache : Yes
Make use of C2 pointers : No

Read offset correction : 48
Overread into Lead-In and Lead-Out : No
Fill up missing offset samples with silence : Yes
Delete leading and trailing silent blocks : No
Null samples used in CRC calculations : Yes
Used interface : Native Win32 interface for Win NT & 2000

Used output format : User Defined Encoder
Selected bitrate : 128 kBit/s
Quality : High
Add ID3 tag : No
Command line compressor : C:\Program Files (x86)\Exact Audio Copy\Flac\flac.exe
Additional command line options : -V -8 -T "Date=%year%" -T "Genre=%genre%" %source%


TOC of the extracted CD

Track | Start | Length | Start sector | End sector
––––––––––––––––––––––––––––-
1 | 0:00.00 | 7:48.27 | 0 | 35126
2 | 7:48.27 | 4:46.70 | 35127 | 56646
3 | 12:35.22 | 8:03.39 | 56647 | 92910
4 | 20:38.61 | 9:14.71 | 92911 | 134531
5 | 29:53.57 | 7:30.18 | 134532 | 168299
6 | 37:24.00 | 3:11.10 | 168300 | 182634
7 | 40:35.10 | 9:08.59 | 182635 | 223793
8 | 49:43.69 | 4:55.66 | 223794 | 245984
9 | 54:39.60 | 9:19.71 | 245985 | 287980
10 | 63:59.56 | 4:32.13 | 287981 | 308393


Range status and errors

Selected range

Filename C:\temp\cpo999943-2_Tunder - Concerti\Tunder - Concerti.wav

Peak level 95.0 %
Extraction speed 2.2 X
Range quality 100.0 %
Test CRC 8DB45DE6
Copy CRC 8DB45DE6
Copy OK

No errors occurred


AccurateRip summary

Track 1 accurately ripped (confidence 12) [F5FF5F7A] (AR v2)
Track 2 accurately ripped (confidence 12) [E14D6E54] (AR v2)
Track 3 accurately ripped (confidence 12) [4A74E324] (AR v2)
Track 4 accurately ripped (confidence 12) [96D223F7] (AR v2)
Track 5 accurately ripped (confidence 12) [54E5F4B9] (AR v2)
Track 6 accurately ripped (confidence 12) [B8D66B40] (AR v2)
Track 7 accurately ripped (confidence 12) [86FF688C] (AR v2)
Track 8 accurately ripped (confidence 12) [657EE173] (AR v2)
Track 9 accurately ripped (confidence 12) [15A6E1F3] (AR v2)
Track 10 accurately ripped (confidence 12) [0CF3B047] (AR v2)

All tracks accurately ripped

End of status report

==== Log checksum 252B2DA811B13900377187C4A60AFB5362B8F6F07AF43ACD688A627D9CB5ADAC ====

foobar2000 1.2 / Dynamic Range Meter 1.1.1
log date: 2018-04-10 07:20:10

––––––––––––––––––––––––––––––––––––––––
Analyzed: Rheinische Kantorei, Das Kleine Konzert, Hermann Max / Tunder - Concerti
––––––––––––––––––––––––––––––––––––––––

DR Peak RMS Duration Track
––––––––––––––––––––––––––––––––––––––––
DR15 -0.86 dB -21.49 dB 7:48 01-Nisi Dominus aedificaverit
DR13 -2.53 dB -21.36 dB 4:47 02-Helft mir Gott's Güte preisen
DR13 -5.44 dB -23.02 dB 8:04 03-Da mihi Domine
DR14 -0.44 dB -20.96 dB 9:15 04-Wend' ab deinen Zorn, lieber Herr, mit Gnaden
DR14 -3.45 dB -22.15 dB 7:30 05-Herr, nun lässest du deinen Diener
DR13 -0.85 dB -20.28 dB 3:11 06-An Wasserflüssen Babylon
DR14 -0.87 dB -19.87 dB 9:09 07-Nisi Dominus aedificaverit
DR13 -6.19 dB -22.64 dB 4:56 08-O Jesu dulcissime
DR14 -1.77 dB -20.35 dB 9:20 09-Eine feste Burg ist unser Gott
DR15 -5.71 dB -23.85 dB 4:32 10-Salve coelestis pater
––––––––––––––––––––––––––––––––––––––––

Number of tracks: 10
Official DR value: DR14

Samplerate: 44100 Hz
Channels: 2
Bits per sample: 16
Bitrate: 588 kbps
Codec: FLAC
================================================================================

Rheinische Kantorei; Das Kleine Konzert; Hermann Max - Franz Tunder: Concerti (2004)

All thanks to original releaser - A-Z

More interesting music in My Blog