Tags
Language
Tags

Hermann Max, Das Kleine Konzert, Rheinische Kantorei - Bach: Johannes-Passion (1991)

Posted By: ArlegZ
Hermann Max, Das Kleine Konzert, Rheinische Kantorei - Bach: Johannes-Passion (1991)

Hermann Max, Das Kleine Konzert, Rheinische Kantorei - Bach: Johannes-Passion (1991)
EAC | FLAC | Image (Cue & Log) ~ 493 Mb | Total time: 47:00+50:04 | Scans included
Classical | Label: Capriccio | # 60 023-2 | Recorded: 1990

Außerordent- lich lebendige, dramatisch gespannte Wieder- gabe durch ein kleines, stimmlich tüchtiges Ensemble. Gute Solisten sowohl im vokalen wie instrumentalen Bereich.
– A. Beaujean in stereoplay

Performer:
Christoph Prégardien, tenor (Evangelist)
Hans-Georg Wimmer, bass (Jesus)
Martina Lins, soprano
Dorothea Röschmann, soprano
Ralf Popken, alto
Markus Brutscher, tenor (arias)
Gotthold Schwarz, bass (arias)
Rheinische Kantorei
Das Kleine Konzert
Conductor - Hermann Max

Track List:
CD1:
Erster Teil
01. Chor: Herr, unser Herrscher
02. Rezitative (Evangelist, Jesus), Chor: Jesum von Nazareth
03. Choral: O große Lieb
04. Rezitativ (Evangelist, Jesus): Auf daß das Wort erfullet wurde
05. Choral: Dein Will gescheh
06. Rezitativ (Evangelist): Die Schar aber und der Oberhauptmann
07. Arie (Alt): Von den Stricken meiner Sünden
08. Rezitativ (Evangelist): Simon Petrus aber folgte Jesu nach
09. Arie (Sopran): Ich folge dir gleichfalls
10. Rezitativ (Evangelist, Petrus, Jesus): Derselbige Junger war dem Hohepriester bekannt
11. Choral: wer hat dich so geschlagen
12. Rezitative (Evangelist, Petrus), Chor: Bist du nicht seiner Junger einer
13. Arie (Tenor): Ach, mein Sinn
14. Choral: Petrus, der nicht denkt zurück
Zweiter Teil
15. Choral: Christus, der uns selig macht
16. Rezitativ (Evangelist, Pilatus, Jesus): Da führeten sie Jesum … Chor: Ware dieser nicht ein Ubeltater, Wir durfen niemand toten
17. Choral: Ach, großer König
18. Rezitativ (Evangelist, Pilatus, Jesus), Chor: Nicht diesen, sondern Barrabam
19. Arioso (Bass): Betrachte meine Seel
20. Arie (Tenor): Mein Jesu, ach
CD2:
01. Rezitativ (Evangelist, Pilatus, Jesus): Und die Kriegsknechte flochten … Chor: Sei gegrusset, lieber Judenkonig; Kreuzige, kreuzige; Wir haben ein Gesetz
02. Choral: Durch dein Gefängnis
03. Rezitativ (Evangelist, Pilatus): Die Jüden aber schrieen und sprachen … Chor: Laßest du diesen los; Weg, weg mit dem; Wir haben keinen Konig
04. Arie (Baß) und Chor: Eilt, ihr angefochtnen Seelen
05. Rezitativ (Evangelist, Pilatus), Chor: Schreibe nicht, der Juden Konig
06. Choral: In meines Herzens Grunde
07. Rezitativ (Evangelist, Jesus), Chor: Lasset uns den nicht zerteilen
08. Choral: Er nahm alles wohl in acht
09. Rezitativ (Evangelist, Jesus): Und von Stund an nahm sie der Junger
10. Arie (Alt): Es ist vollbracht
11. Rezitativ (Evangelist): Und neiget das Haupt und verschied
12. Arie (Baß) und Chor: Mein teurer Heiland, laß dich fragen
13. Rezitativ (Evangelist): Und siehe da, der Vorhang im Tempel zerriß
14. Arioso (Tenor): Mein Herz, in dem die ganze Welt
15. Arie (Sopran): Zerfließe, mein Herz
16. Rezitativ (Evangelist): Die Juden aber, dieweil es der Rüsttag war
17. Choral: O hilf, Christe, Gottes Sohn
18. Rezitativ (Evangelist): Darnach bat Pilatum Joseph von Arimathia
19. Chor: Ruht wohl, ihr heiligen Gebeine
20. Choral: Ach Herr, laß dein lieb Engelein


Exact Audio Copy V1.0 beta 3 from 29. August 2011

Отчёт EAC об извлечении, выполненном 1. сентября 2013, 20:01

Hermann Max - Rheinische Kantorei, Das Kleine Konzert / Passio Secundum Johannem - Disc1

Дисковод: HL-DT-STDVDRAM GT33N Adapter: 1 ID: 0

Режим чтения : Достоверность
Использование точного потока : Да
Отключение кэша аудио : Да
Использование указателей C2 : Нет

Коррекция смещения при чтении : 103
Способность читать области Lead-in и Lead-out : Нет
Заполнение пропущенных сэмплов тишиной : Да
Удаление блоков с тишиной в начале и конце : Нет
При вычислениях CRC использовались нулевые сэмплы : Да
Интерфейс : Встроенный Win32-интерфейс для Win NT/2000

Выходной формат : Пользовательский кодировщик
Выбранный битрейт : 1024 kBit/s
Качество : Высокий
Добавление ID3-тега : Да
Утилита сжатия : C:\Program Files (x86)\Exact Audio Copy\Flac\flac.exe
Дополнительные параметры : -8 -V -T "ALBUMARTIST=%albumartist%" -T "ALBUM=%albumtitle%" -T "DATE=%year%" -T "TRACKTOTAL=%numtracks%" -T "GENRE=%genre%" -T "COMMENT=%comment%" -T "PERFORMER=%albuminterpret%" -T "COMPOSER=%composer%" %source% -o %dest%

TOC извлечённого CD

Трек | Старт | Длительность | Начальный сектор | Конечный сектор
––––––––––––––––––––––––––––––––––-
1 | 0:00.12 | 8:24.10 | 12 | 37821
2 | 8:24.22 | 1:56.60 | 37822 | 46581
3 | 10:21.07 | 0:40.08 | 46582 | 49589
4 | 11:01.15 | 0:56.20 | 49590 | 53809
5 | 11:57.35 | 0:41.30 | 53810 | 56914
6 | 12:38.65 | 0:34.22 | 56915 | 59486
7 | 13:13.12 | 4:00.30 | 59487 | 77516
8 | 17:13.42 | 0:14.33 | 77517 | 78599
9 | 17:28.00 | 3:47.42 | 78600 | 95666
10 | 21:15.42 | 2:32.20 | 95667 | 107086
11 | 23:47.62 | 1:15.45 | 107087 | 112756
12 | 25:03.32 | 1:48.03 | 112757 | 120859
13 | 26:51.35 | 2:19.67 | 120860 | 131351
14 | 29:11.27 | 1:04.13 | 131352 | 136164
15 | 30:15.40 | 0:49.62 | 136165 | 139901
16 | 31:05.27 | 3:37.48 | 139902 | 156224
17 | 34:43.00 | 1:17.70 | 156225 | 162069
18 | 36:00.70 | 1:40.47 | 162070 | 169616
19 | 37:41.42 | 1:59.70 | 169617 | 178611
20 | 39:41.37 | 7:18.30 | 178612 | 211491

Характеристики диапазона извлечения и сообщения об ошибках

Выбранный диапазон

Имя файла O:\!Rips\J.S.Bach - JP - Max\Passio Secundum Johannem - Disc1.wav

Пиковый уровень 100.0 %
Скорость извлечения 2.1 X
Качество диапазона 100.0 %
CRC теста 5EED0CFA
CRC копии 5EED0CFA
Копирование… OK

Ошибок не произошло

AccurateRip: сводка

Трек 1 отсутствует в базе данных
Трек 2 отсутствует в базе данных
Трек 3 отсутствует в базе данных
Трек 4 отсутствует в базе данных
Трек 5 отсутствует в базе данных
Трек 6 отсутствует в базе данных
Трек 7 отсутствует в базе данных
Трек 8 отсутствует в базе данных
Трек 9 отсутствует в базе данных
Трек 10 отсутствует в базе данных
Трек 11 отсутствует в базе данных
Трек 12 отсутствует в базе данных
Трек 13 отсутствует в базе данных
Трек 14 отсутствует в базе данных
Трек 15 отсутствует в базе данных
Трек 16 отсутствует в базе данных
Трек 17 отсутствует в базе данных
Трек 18 отсутствует в базе данных
Трек 19 отсутствует в базе данных
Трек 20 отсутствует в базе данных

Ни одного трека нет в базе AccurateRip

Конец отчёта

==== Контрольная сумма отчёта 91BB0D404626FE5FDE47D9F02E7E59BC35B4D940BE48C60D146D4EF02B7E5423 ====


Exact Audio Copy V1.0 beta 3 from 29. August 2011

Отчёт EAC об извлечении, выполненном 1. сентября 2013, 21:00

Hermann Max - Rheinische Kantorei, Das Kleine Konzert / Passio Secundum Johannem - Disc 2

Дисковод: HL-DT-STDVDRAM GT33N Adapter: 1 ID: 0

Режим чтения : Достоверность
Использование точного потока : Да
Отключение кэша аудио : Да
Использование указателей C2 : Нет

Коррекция смещения при чтении : 103
Способность читать области Lead-in и Lead-out : Нет
Заполнение пропущенных сэмплов тишиной : Да
Удаление блоков с тишиной в начале и конце : Нет
При вычислениях CRC использовались нулевые сэмплы : Да
Интерфейс : Встроенный Win32-интерфейс для Win NT/2000

Выходной формат : Пользовательский кодировщик
Выбранный битрейт : 1024 kBit/s
Качество : Высокий
Добавление ID3-тега : Да
Утилита сжатия : C:\Program Files (x86)\Exact Audio Copy\Flac\flac.exe
Дополнительные параметры : -8 -V -T "ALBUMARTIST=%albumartist%" -T "ALBUM=%albumtitle%" -T "DATE=%year%" -T "TRACKTOTAL=%numtracks%" -T "GENRE=%genre%" -T "COMMENT=%comment%" -T "PERFORMER=%albuminterpret%" -T "COMPOSER=%composer%" %source% -o %dest%

TOC извлечённого CD

Трек | Старт | Длительность | Начальный сектор | Конечный сектор
––––––––––––––––––––––––––––––––––-
1 | 0:00.13 | 4:51.62 | 13 | 21899
2 | 4:52.00 | 0:45.10 | 21900 | 25284
3 | 5:37.10 | 3:43.53 | 25285 | 42062
4 | 9:20.63 | 3:57.00 | 42063 | 59837
5 | 13:17.63 | 1:43.47 | 59838 | 67609
6 | 15:01.35 | 0:51.20 | 67610 | 71454
7 | 15:52.55 | 3:21.43 | 71455 | 86572
8 | 19:14.23 | 0:51.62 | 86573 | 90459
9 | 20:06.10 | 1:06.13 | 90460 | 95422
10 | 21:12.23 | 4:39.30 | 95423 | 116377
11 | 25:51.53 | 0:19.70 | 116378 | 117872
12 | 26:11.48 | 3:42.72 | 117873 | 134594
13 | 29:54.45 | 0:22.35 | 134595 | 136279
14 | 30:17.05 | 0:44.63 | 136280 | 139642
15 | 31:01.68 | 6:26.30 | 139643 | 168622
16 | 37:28.23 | 1:50.32 | 168623 | 176904
17 | 39:18.55 | 0:51.00 | 176905 | 180729
18 | 40:09.55 | 1:49.18 | 180730 | 188922
19 | 41:58.73 | 6:35.17 | 188923 | 218564
20 | 48:34.15 | 1:29.58 | 218565 | 225297

Характеристики диапазона извлечения и сообщения об ошибках

Выбранный диапазон

Имя файла O:\!Rips\J.S.Bach - JP - Max\Passio Secundum Johannem - Disc 2.wav

Пиковый уровень 97.3 %
Скорость извлечения 2.1 X
Качество диапазона 100.0 %
CRC теста E60A573D
CRC копии E60A573D
Копирование… OK

Ошибок не произошло

AccurateRip: сводка

Трек 1 точность не определена (достоверность 1) [7427D7EE], AccurateRip вернул [BEF4469F] (AR v2)
Трек 2 точность не определена (достоверность 1) [7AE95772], AccurateRip вернул [6C03A396] (AR v2)
Трек 3 точность не определена (достоверность 1) [F2D907D7], AccurateRip вернул [9D38AE28] (AR v2)
Трек 4 точность не определена (достоверность 1) [43E8EA21], AccurateRip вернул [85C0506B] (AR v2)
Трек 5 точность не определена (достоверность 1) [B620926F], AccurateRip вернул [2A670E47] (AR v2)
Трек 6 точность не определена (достоверность 1) [16B1F2D5], AccurateRip вернул [F2237867] (AR v2)
Трек 7 точность не определена (достоверность 1) [E28703A1], AccurateRip вернул [88D762EC] (AR v2)
Трек 8 точность не определена (достоверность 1) [9471806B], AccurateRip вернул [3D033CB3] (AR v2)
Трек 9 точность не определена (достоверность 1) [B3B822F3], AccurateRip вернул [72B82EC6] (AR v2)
Трек 10 точность не определена (достоверность 1) [3BFBFD22], AccurateRip вернул [A7604CDF] (AR v2)
Трек 11 точность не определена (достоверность 1) [E34AABDB], AccurateRip вернул [0393F6E7] (AR v2)
Трек 12 точность не определена (достоверность 1) [6DA7F41C], AccurateRip вернул [9477190D] (AR v2)
Трек 13 точность не определена (достоверность 1) [FB08CCC9], AccurateRip вернул [D3E90C8E] (AR v2)
Трек 14 точность не определена (достоверность 1) [2908F1DF], AccurateRip вернул [28B1A5E0] (AR v2)
Трек 15 точность не определена (достоверность 1) [739CBB80], AccurateRip вернул [4CC75712] (AR v2)
Трек 16 точность не определена (достоверность 1) [CC8FF0E8], AccurateRip вернул [4A8146A0] (AR v2)
Трек 17 точность не определена (достоверность 1) [5AF1BEA0], AccurateRip вернул [C1A924AB] (AR v2)
Трек 18 точность не определена (достоверность 1) [06436EC1], AccurateRip вернул [0FC90C0D] (AR v2)
Трек 19 точность не определена (достоверность 1) [22EDE649], AccurateRip вернул [168FA0FB] (AR v2)
Трек 20 точность не определена (достоверность 1) [14DAC8CF], AccurateRip вернул [0FF26D0A] (AR v2)

Ни один трек не прошёл проверки на точность
В вашей базе может быть иной вариант штамповки диска

Конец отчёта

==== Контрольная сумма отчёта 7DC1B7494002B2DB8AE7BACCA82A531E0C964B531C11F19EA592C793EDAE7EB3 ====

Hermann Max, Das Kleine Konzert, Rheinische Kantorei - Bach: Johannes-Passion (1991)

Thanks to the original releaser