Subcategories

Hervé Niquet, Brussels Philharmonic Orchestra, Flemish Radio Choir - Félicien David: Herculanum (2015)

Posted By: ArlegZ
Hervé Niquet, Brussels Philharmonic Orchestra, Flemish Radio Choir - Félicien David: Herculanum (2015)

Hervé Niquet, Brussels Philharmonic Orchestra, Flemish Radio Choir - Félicien David: Herculanum (2015)
XLD | FLAC | Image (Cue & Log) ~ 1.31 Gb | Total time: 72:58+49:06 | Scans included
Classical | Label: Ediciones Singulares ‎| # ES 1020 | Recorded: 2014

Félicien David was already famous through his 'ode-symphonie' Le Désert (1844) when his opera Herculanum was first staged at the Paris Opéra in 1859. This ambitious work, later to gain him entrance to the Opéra-Comique and the Institut de France, also played a part in earning him the Légion d'Honneur. Leaving behind the Middle Eastern inflections of his earlier scores, Herculanum is a remarkably strong composition (vast, intensely dramatic scenes), impressive in the diversity of its style (including Verdian influences) and its vocal variety (including the rare coloratura contralto voice often used by Rossini). There is also a fantastic vein, as made popular by Boieldieu (La Dame blanche, 1825) and Meyerbeer (Robert le Diable, 1831); but the supernatural is used here to serve an openly stated mysticism: the eruption of Vesuvius brings a spectacular, cataclysmic ending, signifying the decadence of the ancient world and the triumph of Christianity.

Performer:
Lilia - Véronique Gens
Olympia - Karine Deshayes
Hélios - Edgaras Montvidas
Nicanor / Satan - Nicolas Courjal
Magnus - Julien Véronèse
Flemish Radio Choir
Brussels Philharmonic Orchestra
Conductor - Hervé Niquet

Track List:
CD1:
01. Introduction
Acte Premier
02. Gloire, gloire à toi
03. Oui, j'ai passé les mers
04. Marche
05. Pour célébrer le jour
06. Du sang! Du sang!
07. Dans une retraite profonde
08. Votre Dieu, votre foi
09. Le monde est conquis
10. Quels sont les noms
11. Noble Hélios, en ton absence
12. Réponds!
13. Tout est soumis à ma puissance
14. Déesse des plaisirs
15. Buvons! Buvons encore à la Reine
16. Les convives joyeux boivent
17. Bois ce vin que l'amour donne
18. Hélios! Obéis
19. Dieu! Quel monde nouveau
20. À toi, reine ou déesse!
21. Je veux aimer toujours
22. Malheur! Malheur!
23. Un ange m'apparut
24. Rions de ce prophète
Acte Deuxième
25. Prélude
26. Seuls, dans la nuit
27. Roi du ciel
28. Gardes! Dispersez-la
29. Non, je ne puis souffrir
30. Toi chrétien!
31. Oui, j'ai menti
32. Me voilà libre enfin
33. Je veux aimer toujours
CD2:
Acte Troisième
01. Ô jour d'ivresse!
02. Ce palais…ce festin
03. Ô jour d'ivresse!
04. Pas Des Muses
05. Hélios!…Il est là…
06. Je crois au Dieu
07. Qu'on l'emmène
08. Suis-là donc
09. Parle, réponds, décide
10. Hélios! Je t'appelle
11. Enfin tu crois à ma tendresse!
Acte Quatrième. Premier Tableau
12. Prélude
13. Oui, Satan est vainqueur
14. Le proconsul!
15. Amis, marchons!
16. Allez, dans la nuit profonde
Deuxième Tableau
17. Dieu ne m'a pas frappé
18. Oui, j'ai mérité l'anathème
19. Ah! Malgré moi, j'oublie
20. Mon Dieu! Ce pardon qu'il demande
21. Viens! La mort, qui nous purifie
22. Ah! Malheur
23. Ô terreur!
24. Eh bien! S'il faut que dans ce jour


X Lossless Decoder version 20181019 (151.1)

XLD extraction logfile from 2020-06-29 01:22:02 +0100

Flemish Radio Choir - Brussels Philharmonic - Hervé Niquet / David: Herculanum Disc 1

Used drive : TSSTcorp CDDVDW SE-208GB (revision MF00)
Media type : Pressed CD

Ripper mode : XLD Secure Ripper
Disable audio cache : OK for the drive with a cache less than 1375KiB
Make use of C2 pointers : NO
Read offset correction : 6
Max retry count : 100
Gap status : Analyzed, Appended

TOC of the extracted CD
Track | Start | Length | Start sector | End sector
––––––––––––––––––––––––––––-
1 | 00:00:00 | 03:03:57 | 0 | 13781
2 | 03:03:57 | 04:56:16 | 13782 | 35997
3 | 07:59:73 | 00:52:64 | 35998 | 39961
4 | 08:52:62 | 01:44:26 | 39962 | 47787
5 | 10:37:13 | 00:28:17 | 47788 | 49904
6 | 11:05:30 | 01:54:25 | 49905 | 58479
7 | 12:59:55 | 02:53:59 | 58480 | 71513
8 | 15:53:39 | 01:36:00 | 71514 | 78713
9 | 17:29:39 | 00:41:24 | 78714 | 81812
10 | 18:10:63 | 01:17:37 | 81813 | 87624
11 | 19:28:25 | 02:30:61 | 87625 | 98935
12 | 21:59:11 | 00:20:65 | 98936 | 100500
13 | 22:20:01 | 01:54:65 | 100501 | 109115
14 | 24:14:66 | 00:59:20 | 109116 | 113560
15 | 25:14:11 | 01:12:24 | 113561 | 118984
16 | 26:26:35 | 00:40:15 | 118985 | 121999
17 | 27:06:50 | 04:03:48 | 122000 | 140272
18 | 31:10:23 | 00:37:54 | 140273 | 143101
19 | 31:48:02 | 02:46:68 | 143102 | 155619
20 | 34:34:70 | 03:01:50 | 155620 | 169244
21 | 37:36:45 | 03:22:39 | 169245 | 184433
22 | 40:59:09 | 01:54:32 | 184434 | 193015
23 | 42:53:41 | 02:32:26 | 193016 | 204441
24 | 45:25:67 | 03:05:10 | 204442 | 218326
25 | 48:31:02 | 01:47:59 | 218327 | 226410
26 | 50:18:61 | 02:29:38 | 226411 | 237623
27 | 52:48:24 | 01:40:42 | 237624 | 245165
28 | 54:28:66 | 04:14:51 | 245166 | 264266
29 | 58:43:42 | 02:21:52 | 264267 | 274893
30 | 61:05:19 | 01:17:23 | 274894 | 280691
31 | 62:22:42 | 04:14:51 | 280692 | 299792
32 | 66:37:18 | 04:05:13 | 299793 | 318180
33 | 70:42:31 | 02:13:66 | 318181 | 328221

AccurateRip Summary (DiscID: 004e0245-0724313e-e0111821)
Track 01 : OK (v2, confidence 4/4)
Track 02 : OK (v2, confidence 4/4)
Track 03 : OK (v2, confidence 4/4)
Track 04 : OK (v2, confidence 4/4)
Track 05 : OK (v2, confidence 4/4)
Track 06 : OK (v2, confidence 4/4)
Track 07 : OK (v2, confidence 4/4)
Track 08 : OK (v2, confidence 4/4)
Track 09 : OK (v2, confidence 4/4)
Track 10 : OK (v2, confidence 4/4)
Track 11 : OK (v2, confidence 4/4)
Track 12 : OK (v2, confidence 4/4)
Track 13 : OK (v2, confidence 4/4)
Track 14 : OK (v2, confidence 4/4)
Track 15 : OK (v2, confidence 4/4)
Track 16 : OK (v2, confidence 4/4)
Track 17 : OK (v2, confidence 4/4)
Track 18 : OK (v2, confidence 4/4)
Track 19 : OK (v2, confidence 4/4)
Track 20 : OK (v2, confidence 4/4)
Track 21 : OK (v2, confidence 4/4)
Track 22 : OK (v2, confidence 4/4)
Track 23 : OK (v2, confidence 4/4)
Track 24 : OK (v2, confidence 4/4)
Track 25 : OK (v2, confidence 4/4)
Track 26 : OK (v2, confidence 4/4)
Track 27 : OK (v2, confidence 4/4)
Track 28 : OK (v2, confidence 5/5)
Track 29 : OK (v2, confidence 5/5)
Track 30 : OK (v2, confidence 5/5)
Track 31 : OK (v2, confidence 5/5)
Track 32 : OK (v2, confidence 5/5)
Track 33 : OK (v2, confidence 5/5)
->All tracks accurately ripped.

All Tracks
Filename : /Users/polarbear/Music/Flemish Radio Choir - Brussels Philharmonic - Hervé Niquet - David: Herculanum Disc 1 (2015) [FLAC]/01 David: Herculanum Disc 1
Flemish Radio Choir - Brussels Philharmonic - Hervé Niquet - 2015 - David: Herculanum Disc 1 [FLAC]/01 David: Herculanum Disc 1.flac
Album gain : -2.09 dB
Peak : 0.993866
CRC32 hash (test run) : 7308AD55
CRC32 hash : 7308AD55
CRC32 hash (skip zero) : 5D991AA5
Statistics
Read error : 0
Jitter error (maybe fixed) : 0
Retry sector count : 0
Damaged sector count : 0

Track 01
Pre-gap length : 00:02:00

Track gain : 3.19 dB
Peak : 0.915314
CRC32 hash (test run) : 0C2B9133
CRC32 hash : 0C2B9133
CRC32 hash (skip zero) : 84850CAB
AccurateRip v1 signature : FE469BFE
AccurateRip v2 signature : B9968233
->Accurately ripped (v2, confidence 4/4)
Statistics
Read error : 0
Jitter error (maybe fixed) : 0
Retry sector count : 0
Damaged sector count : 0

Track 02

Track gain : -4.44 dB
Peak : 0.993866
CRC32 hash (test run) : B791B44E
CRC32 hash : B791B44E
CRC32 hash (skip zero) : 38AA76DE
AccurateRip v1 signature : C25EC351
AccurateRip v2 signature : 73FD5394
->Accurately ripped (v2, confidence 4/4)
Statistics
Read error : 0
Jitter error (maybe fixed) : 0
Retry sector count : 0
Damaged sector count : 0

Track 03

Track gain : 1.74 dB
Peak : 0.695740
CRC32 hash (test run) : 32ABCAF5
CRC32 hash : 32ABCAF5
CRC32 hash (skip zero) : 7C786198
AccurateRip v1 signature : 0FE8E0B7
AccurateRip v2 signature : FB9B4109
->Accurately ripped (v2, confidence 4/4)
Statistics
Read error : 0
Jitter error (maybe fixed) : 0
Retry sector count : 0
Damaged sector count : 0

Track 04

Track gain : -4.67 dB
Peak : 0.958282
CRC32 hash (test run) : 037419CD
CRC32 hash : 037419CD
CRC32 hash (skip zero) : E4ED87A7
AccurateRip v1 signature : 94103E00
AccurateRip v2 signature : 133A5CAF
->Accurately ripped (v2, confidence 4/4)
Statistics
Read error : 0
Jitter error (maybe fixed) : 0
Retry sector count : 0
Damaged sector count : 0

Track 05

Track gain : 4.06 dB
Peak : 0.562347
CRC32 hash (test run) : 596DC53F
CRC32 hash : 596DC53F
CRC32 hash (skip zero) : 428509F2
AccurateRip v1 signature : A7FB5874
AccurateRip v2 signature : D94F7A9B
->Accurately ripped (v2, confidence 4/4)
Statistics
Read error : 0
Jitter error (maybe fixed) : 0
Retry sector count : 0
Damaged sector count : 0

Track 06

Track gain : -5.86 dB
Peak : 0.974457
CRC32 hash (test run) : 28C8ED4B
CRC32 hash : 28C8ED4B
CRC32 hash (skip zero) : B4621DE7
AccurateRip v1 signature : 542D712C
AccurateRip v2 signature : 004D343B
->Accurately ripped (v2, confidence 4/4)
Statistics
Read error : 0
Jitter error (maybe fixed) : 0
Retry sector count : 0
Damaged sector count : 0

Track 07

Track gain : 0.58 dB
Peak : 0.934296
CRC32 hash (test run) : 8222D549
CRC32 hash : 8222D549
CRC32 hash (skip zero) : EF30E23A
AccurateRip v1 signature : AF95E23C
AccurateRip v2 signature : AF2178C7
->Accurately ripped (v2, confidence 4/4)
Statistics
Read error : 0
Jitter error (maybe fixed) : 0
Retry sector count : 0
Damaged sector count : 0

Track 08

Track gain : 3.48 dB
Peak : 0.761719
CRC32 hash (test run) : 579CEB5C
CRC32 hash : 579CEB5C
CRC32 hash (skip zero) : A6571D5A
AccurateRip v1 signature : 1101DB64
AccurateRip v2 signature : 32DC3877
->Accurately ripped (v2, confidence 4/4)
Statistics
Read error : 0
Jitter error (maybe fixed) : 0
Retry sector count : 0
Damaged sector count : 0

Track 09

Track gain : 1.09 dB
Peak : 0.900604
CRC32 hash (test run) : DA3548D0
CRC32 hash : DA3548D0
CRC32 hash (skip zero) : DF025AF5
AccurateRip v1 signature : FDCED7E0
AccurateRip v2 signature : AD7026F8
->Accurately ripped (v2, confidence 4/4)
Statistics
Read error : 0
Jitter error (maybe fixed) : 0
Retry sector count : 0
Damaged sector count : 0

Track 10

Track gain : 5.79 dB
Peak : 0.555664
CRC32 hash (test run) : 3752D363
CRC32 hash : 3752D363
CRC32 hash (skip zero) : D52B07B2
AccurateRip v1 signature : 03B28A7B
AccurateRip v2 signature : 77ACA168
->Accurately ripped (v2, confidence 4/4)
Statistics
Read error : 0
Jitter error (maybe fixed) : 0
Retry sector count : 0
Damaged sector count : 0

Track 11

Track gain : 2.48 dB
Peak : 0.791351
CRC32 hash (test run) : 535BE0DE
CRC32 hash : 535BE0DE
CRC32 hash (skip zero) : FC0EA2FF
AccurateRip v1 signature : DB7E5D35
AccurateRip v2 signature : CE47BA51
->Accurately ripped (v2, confidence 4/4)
Statistics
Read error : 0
Jitter error (maybe fixed) : 0
Retry sector count : 0
Damaged sector count : 0

Track 12

Track gain : -1.47 dB
Peak : 0.933624
CRC32 hash (test run) : BBEA2F70
CRC32 hash : BBEA2F70
CRC32 hash (skip zero) : 6FF7E991
AccurateRip v1 signature : EDA3D5D4
AccurateRip v2 signature : 7CF6D255
->Accurately ripped (v2, confidence 4/4)
Statistics
Read error : 0
Jitter error (maybe fixed) : 0
Retry sector count : 0
Damaged sector count : 0

Track 13

Track gain : -2.04 dB
Peak : 0.950409
CRC32 hash (test run) : E2DCC682
CRC32 hash : E2DCC682
CRC32 hash (skip zero) : 7DF19FB0
AccurateRip v1 signature : 714193EE
AccurateRip v2 signature : 1A21AC04
->Accurately ripped (v2, confidence 4/4)
Statistics
Read error : 0
Jitter error (maybe fixed) : 0
Retry sector count : 0
Damaged sector count : 0

Track 14

Track gain : 0.52 dB
Peak : 0.902435
CRC32 hash (test run) : 7F06052B
CRC32 hash : 7F06052B
CRC32 hash (skip zero) : 854C0B2F
AccurateRip v1 signature : C94FC24C
AccurateRip v2 signature : AF0E7BF9
->Accurately ripped (v2, confidence 4/4)
Statistics
Read error : 0
Jitter error (maybe fixed) : 0
Retry sector count : 0
Damaged sector count : 0

Track 15

Track gain : -6.66 dB
Peak : 0.980530
CRC32 hash (test run) : EB0B546B
CRC32 hash : EB0B546B
CRC32 hash (skip zero) : 37800C4C
AccurateRip v1 signature : A64D3CD3
AccurateRip v2 signature : 16CCB9A6
->Accurately ripped (v2, confidence 4/4)
Statistics
Read error : 0
Jitter error (maybe fixed) : 0
Retry sector count : 0
Damaged sector count : 0

Track 16

Track gain : 3.74 dB
Peak : 0.712769
CRC32 hash (test run) : 2E279A99
CRC32 hash : 2E279A99
CRC32 hash (skip zero) : 57112349
AccurateRip v1 signature : 95F5E149
AccurateRip v2 signature : 8659A430
->Accurately ripped (v2, confidence 4/4)
Statistics
Read error : 0
Jitter error (maybe fixed) : 0
Retry sector count : 0
Damaged sector count : 0

Track 17

Track gain : -1.54 dB
Peak : 0.957306
CRC32 hash (test run) : B5D6C5F9
CRC32 hash : B5D6C5F9
CRC32 hash (skip zero) : C936DC28
AccurateRip v1 signature : 52DACE4F
AccurateRip v2 signature : A984A23A
->Accurately ripped (v2, confidence 4/4)
Statistics
Read error : 0
Jitter error (maybe fixed) : 0
Retry sector count : 0
Damaged sector count : 0

Track 18

Track gain : 3.27 dB
Peak : 0.652527
CRC32 hash (test run) : BE3D782E
CRC32 hash : BE3D782E
CRC32 hash (skip zero) : 3118723F
AccurateRip v1 signature : A36DBC34
AccurateRip v2 signature : 4121B328
->Accurately ripped (v2, confidence 4/4)
Statistics
Read error : 0
Jitter error (maybe fixed) : 0
Retry sector count : 0
Damaged sector count : 0

Track 19

Track gain : 5.23 dB
Peak : 0.758026
CRC32 hash (test run) : A90DC3B3
CRC32 hash : A90DC3B3
CRC32 hash (skip zero) : E641791E
AccurateRip v1 signature : FD5E4E26
AccurateRip v2 signature : D76C9C32
->Accurately ripped (v2, confidence 4/4)
Statistics
Read error : 0
Jitter error (maybe fixed) : 0
Retry sector count : 0
Damaged sector count : 0

Track 20

Track gain : -0.31 dB
Peak : 0.868988
CRC32 hash (test run) : F54BDE5B
CRC32 hash : F54BDE5B
CRC32 hash (skip zero) : C85E08AA
AccurateRip v1 signature : 48855780
AccurateRip v2 signature : CCD7AA79
->Accurately ripped (v2, confidence 4/4)
Statistics
Read error : 0
Jitter error (maybe fixed) : 0
Retry sector count : 0
Damaged sector count : 0

Track 21

Track gain : 3.04 dB
Peak : 0.633942
CRC32 hash (test run) : 58279F77
CRC32 hash : 58279F77
CRC32 hash (skip zero) : B7C236C0
AccurateRip v1 signature : 9326AA65
AccurateRip v2 signature : 707F79EB
->Accurately ripped (v2, confidence 4/4)
Statistics
Read error : 0
Jitter error (maybe fixed) : 0
Retry sector count : 0
Damaged sector count : 0

Track 22

Track gain : -0.14 dB
Peak : 0.928223
CRC32 hash (test run) : A63DFB9B
CRC32 hash : A63DFB9B
CRC32 hash (skip zero) : F9EA71D3
AccurateRip v1 signature : 49DFDC28
AccurateRip v2 signature : C51AAD64
->Accurately ripped (v2, confidence 4/4)
Statistics
Read error : 0
Jitter error (maybe fixed) : 0
Retry sector count : 0
Damaged sector count : 0

Track 23

Track gain : -0.17 dB
Peak : 0.949219
CRC32 hash (test run) : 6129FB92
CRC32 hash : 6129FB92
CRC32 hash (skip zero) : 9DCB2141
AccurateRip v1 signature : 224F4449
AccurateRip v2 signature : 51432F1D
->Accurately ripped (v2, confidence 4/4)
Statistics
Read error : 0
Jitter error (maybe fixed) : 0
Retry sector count : 0
Damaged sector count : 0

Track 24

Track gain : -6.12 dB
Peak : 0.983337
CRC32 hash (test run) : FF9E6D96
CRC32 hash : FF9E6D96
CRC32 hash (skip zero) : E7D5B594
AccurateRip v1 signature : EC17458A
AccurateRip v2 signature : D97B87AC
->Accurately ripped (v2, confidence 4/4)
Statistics
Read error : 0
Jitter error (maybe fixed) : 0
Retry sector count : 0
Damaged sector count : 0

Track 25

Track gain : 0.78 dB
Peak : 0.855896
CRC32 hash (test run) : B83B4840
CRC32 hash : B83B4840
CRC32 hash (skip zero) : 8E2958DC
AccurateRip v1 signature : 991AD467
AccurateRip v2 signature : 2FE4AA06
->Accurately ripped (v2, confidence 4/4)
Statistics
Read error : 0
Jitter error (maybe fixed) : 0
Retry sector count : 0
Damaged sector count : 0

Track 26

Track gain : 6.56 dB
Peak : 0.653992
CRC32 hash (test run) : 83F3FE93
CRC32 hash : 83F3FE93
CRC32 hash (skip zero) : 0E646154
AccurateRip v1 signature : BA6449BE
AccurateRip v2 signature : DC297E1E
->Accurately ripped (v2, confidence 4/4)
Statistics
Read error : 0
Jitter error (maybe fixed) : 0
Retry sector count : 0
Damaged sector count : 0

Track 27

Track gain : 5.33 dB
Peak : 0.797241
CRC32 hash (test run) : B5AD5082
CRC32 hash : B5AD5082
CRC32 hash (skip zero) : 1C4595FD
AccurateRip v1 signature : ABE29C25
AccurateRip v2 signature : A7FAC501
->Accurately ripped (v2, confidence 4/4)
Statistics
Read error : 0
Jitter error (maybe fixed) : 0
Retry sector count : 0
Damaged sector count : 0

Track 28

Track gain : 0.71 dB
Peak : 0.935638
CRC32 hash (test run) : 67DC6083
CRC32 hash : 67DC6083
CRC32 hash (skip zero) : DAEEA3FF
AccurateRip v1 signature : DFB5D06F
AccurateRip v2 signature : 0C43EAFF
->Accurately ripped (v2, confidence 5/5)
Statistics
Read error : 0
Jitter error (maybe fixed) : 0
Retry sector count : 0
Damaged sector count : 0

Track 29

Track gain : -3.37 dB
Peak : 0.969696
CRC32 hash (test run) : 0D759E6F
CRC32 hash : 0D759E6F
CRC32 hash (skip zero) : 9ECE1830
AccurateRip v1 signature : E8CDE00D
AccurateRip v2 signature : 8FB3401D
->Accurately ripped (v2, confidence 5/5)
Statistics
Read error : 0
Jitter error (maybe fixed) : 0
Retry sector count : 0
Damaged sector count : 0

Track 30

Track gain : 0.36 dB
Peak : 0.926849
CRC32 hash (test run) : 67893F68
CRC32 hash : 67893F68
CRC32 hash (skip zero) : 083169C2
AccurateRip v1 signature : D41165B0
AccurateRip v2 signature : B6C5F6BD
->Accurately ripped (v2, confidence 5/5)
Statistics
Read error : 0
Jitter error (maybe fixed) : 0
Retry sector count : 0
Damaged sector count : 0

Track 31

Track gain : -4.60 dB
Peak : 0.974487
CRC32 hash (test run) : 1A96EB12
CRC32 hash : 1A96EB12
CRC32 hash (skip zero) : 0626CA1A
AccurateRip v1 signature : F2E34BEB
AccurateRip v2 signature : 7EDD2F62
->Accurately ripped (v2, confidence 5/5)
Statistics
Read error : 0
Jitter error (maybe fixed) : 0
Retry sector count : 0
Damaged sector count : 0

Track 32

Track gain : -0.98 dB
Peak : 0.993317
CRC32 hash (test run) : B6AF1F3E
CRC32 hash : B6AF1F3E
CRC32 hash (skip zero) : A81048A3
AccurateRip v1 signature : DE9EE878
AccurateRip v2 signature : D4A3C662
->Accurately ripped (v2, confidence 5/5)
Statistics
Read error : 0
Jitter error (maybe fixed) : 0
Retry sector count : 0
Damaged sector count : 0

Track 33

Track gain : -1.13 dB
Peak : 0.960541
CRC32 hash (test run) : 02C9595A
CRC32 hash : 02C9595A
CRC32 hash (skip zero) : FAD57A69
AccurateRip v1 signature : FC8727B3
AccurateRip v2 signature : 5C4515EF
->Accurately ripped (v2, confidence 5/5)
Statistics
Read error : 0
Jitter error (maybe fixed) : 0
Retry sector count : 0
Damaged sector count : 0

No errors occurred

End of status report

––-BEGIN XLD SIGNATURE––-
rJfBXd.H9W87LlOe3opgRKJHZdkLUDDFSo5tezILCAqYdERAajReW.HxXdn1TxH5QxoV3PTi_ym.irWMVNTgZBXbXPljk3u1Xe9An7W
––-END XLD SIGNATURE––-


X Lossless Decoder version 20181019 (151.1)

XLD extraction logfile from 2020-06-29 01:47:43 +0100

Flemish Radio Choir - Brussels Philharmonic - Hervé Niquet / David: Herculanum Disc 2

Used drive : TSSTcorp CDDVDW SE-208GB (revision MF00)
Media type : Pressed CD

Ripper mode : XLD Secure Ripper
Disable audio cache : OK for the drive with a cache less than 1375KiB
Make use of C2 pointers : NO
Read offset correction : 6
Max retry count : 100
Gap status : Analyzed, Appended

TOC of the extracted CD
Track | Start | Length | Start sector | End sector
––––––––––––––––––––––––––––-
1 | 00:00:00 | 01:29:61 | 0 | 6735
2 | 01:29:61 | 01:10:12 | 6736 | 11997
3 | 02:39:73 | 00:55:13 | 11998 | 16135
4 | 03:35:11 | 02:39:50 | 16136 | 28110
5 | 06:14:61 | 01:36:18 | 28111 | 35328
6 | 07:51:04 | 02:15:58 | 35329 | 45511
7 | 10:06:62 | 01:25:60 | 45512 | 51946
8 | 11:32:47 | 01:58:70 | 51947 | 60866
9 | 13:31:42 | 01:14:51 | 60867 | 66467
10 | 14:46:18 | 02:36:65 | 66468 | 78232
11 | 17:23:08 | 02:51:65 | 78233 | 91122
12 | 20:14:73 | 01:19:70 | 91123 | 97117
13 | 21:34:68 | 00:54:25 | 97118 | 101192
14 | 22:29:18 | 01:05:65 | 101193 | 106132
15 | 23:35:08 | 02:30:62 | 106133 | 117444
16 | 26:05:70 | 04:15:49 | 117445 | 136618
17 | 30:21:44 | 03:00:56 | 136619 | 150174
18 | 33:22:25 | 02:34:17 | 150175 | 161741
19 | 35:56:42 | 03:01:17 | 161742 | 175333
20 | 38:57:59 | 02:37:60 | 175334 | 187168
21 | 41:35:44 | 02:26:64 | 187169 | 198182
22 | 44:02:33 | 02:02:52 | 198183 | 207384
23 | 46:05:10 | 01:32:06 | 207385 | 214290
24 | 47:37:16 | 01:29:58 | 214291 | 221023

AccurateRip Summary (DiscID: 0027287f-02bba586-5b0b8218)
Track 01 : OK (v2, confidence 4/4)
Track 02 : OK (v2, confidence 4/4)
Track 03 : OK (v2, confidence 4/4)
Track 04 : OK (v2, confidence 4/4)
Track 05 : OK (v2, confidence 4/4)
Track 06 : OK (v2, confidence 4/4)
Track 07 : OK (v2, confidence 4/4)
Track 08 : OK (v2, confidence 4/4)
Track 09 : OK (v2, confidence 4/4)
Track 10 : OK (v2, confidence 4/4)
Track 11 : OK (v2, confidence 4/4)
Track 12 : OK (v2, confidence 4/4)
Track 13 : OK (v2, confidence 4/4)
Track 14 : OK (v2, confidence 4/4)
Track 15 : OK (v2, confidence 4/4)
Track 16 : OK (v2, confidence 3/3)
Track 17 : OK (v2, confidence 4/4)
Track 18 : OK (v2, confidence 4/4)
Track 19 : OK (v2, confidence 4/4)
Track 20 : OK (v2, confidence 4/4)
Track 21 : OK (v2, confidence 4/4)
Track 22 : OK (v2, confidence 5/5)
Track 23 : OK (v2, confidence 5/5)
Track 24 : OK (v2, confidence 5/5)
->All tracks accurately ripped.

All Tracks
Filename : /Users/polarbear/Music/Flemish Radio Choir - Brussels Philharmonic - Hervé Niquet - David: Herculanum Disc 2 (2015) [FLAC]/01 David: Herculanum Disc 2
Flemish Radio Choir - Brussels Philharmonic - Hervé Niquet - 2015 - David: Herculanum Disc 2 [FLAC]/01 David: Herculanum Disc 2.flac
Album gain : -3.87 dB
Peak : 0.999969
CRC32 hash (test run) : A196E8B8
CRC32 hash : A196E8B8
CRC32 hash (skip zero) : B585005D
Statistics
Read error : 0
Jitter error (maybe fixed) : 0
Retry sector count : 0
Damaged sector count : 0

Track 01
Pre-gap length : 00:02:00

Track gain : -5.87 dB
Peak : 0.970093
CRC32 hash (test run) : F37E2C1A
CRC32 hash : F37E2C1A
CRC32 hash (skip zero) : 06F98698
AccurateRip v1 signature : FF8398FC
AccurateRip v2 signature : 1E73AFE3
->Accurately ripped (v2, confidence 4/4)
Statistics
Read error : 0
Jitter error (maybe fixed) : 0
Retry sector count : 0
Damaged sector count : 0

Track 02

Track gain : 0.79 dB
Peak : 0.862885
CRC32 hash (test run) : C4DAB790
CRC32 hash : C4DAB790
CRC32 hash (skip zero) : C2F69B8B
AccurateRip v1 signature : 1E5ED359
AccurateRip v2 signature : 199AB016
->Accurately ripped (v2, confidence 4/4)
Statistics
Read error : 0
Jitter error (maybe fixed) : 0
Retry sector count : 0
Damaged sector count : 0

Track 03

Track gain : -6.34 dB
Peak : 0.973969
CRC32 hash (test run) : 622F0FAD
CRC32 hash : 622F0FAD
CRC32 hash (skip zero) : DC0DECEF
AccurateRip v1 signature : 6BFAF001
AccurateRip v2 signature : BAF03C54
->Accurately ripped (v2, confidence 4/4)
Statistics
Read error : 0
Jitter error (maybe fixed) : 0
Retry sector count : 0
Damaged sector count : 0

Track 04

Track gain : 4.01 dB
Peak : 0.678436
CRC32 hash (test run) : 2C24FE48
CRC32 hash : 2C24FE48
CRC32 hash (skip zero) : 7BBE84E0
AccurateRip v1 signature : 57102D49
AccurateRip v2 signature : 13AF084B
->Accurately ripped (v2, confidence 4/4)
Statistics
Read error : 0
Jitter error (maybe fixed) : 0
Retry sector count : 0
Damaged sector count : 0

Track 05

Track gain : -2.00 dB
Peak : 0.967896
CRC32 hash (test run) : 612BF498
CRC32 hash : 612BF498
CRC32 hash (skip zero) : DBEB11D8
AccurateRip v1 signature : B680DEAE
AccurateRip v2 signature : FB6608E5
->Accurately ripped (v2, confidence 4/4)
Statistics
Read error : 0
Jitter error (maybe fixed) : 0
Retry sector count : 0
Damaged sector count : 0

Track 06

Track gain : -3.40 dB
Peak : 0.975800
CRC32 hash (test run) : C086684F
CRC32 hash : C086684F
CRC32 hash (skip zero) : 06FC0242
AccurateRip v1 signature : 14CC7286
AccurateRip v2 signature : 156136CF
->Accurately ripped (v2, confidence 4/4)
Statistics
Read error : 0
Jitter error (maybe fixed) : 0
Retry sector count : 0
Damaged sector count : 0

Track 07

Track gain : -0.74 dB
Peak : 0.958771
CRC32 hash (test run) : 5D92CF5B
CRC32 hash : 5D92CF5B
CRC32 hash (skip zero) : 4AEF1631
AccurateRip v1 signature : 93E4A104
AccurateRip v2 signature : 1CF10DD8
->Accurately ripped (v2, confidence 4/4)
Statistics
Read error : 0
Jitter error (maybe fixed) : 0
Retry sector count : 0
Damaged sector count : 0

Track 08

Track gain : -2.28 dB
Peak : 0.964996
CRC32 hash (test run) : 1113C15B
CRC32 hash : 1113C15B
CRC32 hash (skip zero) : 324E7E5D
AccurateRip v1 signature : 2F862FCC
AccurateRip v2 signature : BD5B6A8C
->Accurately ripped (v2, confidence 4/4)
Statistics
Read error : 0
Jitter error (maybe fixed) : 0
Retry sector count : 0
Damaged sector count : 0

Track 09

Track gain : -3.64 dB
Peak : 0.956482
CRC32 hash (test run) : 42799DF0
CRC32 hash : 42799DF0
CRC32 hash (skip zero) : 3C206E9E
AccurateRip v1 signature : 9FFC48FD
AccurateRip v2 signature : 2910C03B
->Accurately ripped (v2, confidence 4/4)
Statistics
Read error : 0
Jitter error (maybe fixed) : 0
Retry sector count : 0
Damaged sector count : 0

Track 10

Track gain : 0.46 dB
Peak : 0.883301
CRC32 hash (test run) : FA36789E
CRC32 hash : FA36789E
CRC32 hash (skip zero) : EAB133B6
AccurateRip v1 signature : A2A68765
AccurateRip v2 signature : 8005540A
->Accurately ripped (v2, confidence 4/4)
Statistics
Read error : 0
Jitter error (maybe fixed) : 0
Retry sector count : 0
Damaged sector count : 0

Track 11

Track gain : -7.08 dB
Peak : 0.981598
CRC32 hash (test run) : A4D21D3B
CRC32 hash : A4D21D3B
CRC32 hash (skip zero) : E9EB393E
AccurateRip v1 signature : 52F76834
AccurateRip v2 signature : 8EA5CB42
->Accurately ripped (v2, confidence 4/4)
Statistics
Read error : 0
Jitter error (maybe fixed) : 0
Retry sector count : 0
Damaged sector count : 0

Track 12

Track gain : 12.76 dB
Peak : 0.192566
CRC32 hash (test run) : 6210590F
CRC32 hash : 6210590F
CRC32 hash (skip zero) : CF87A452
AccurateRip v1 signature : F38B1307
AccurateRip v2 signature : CE85B990
->Accurately ripped (v2, confidence 4/4)
Statistics
Read error : 0
Jitter error (maybe fixed) : 0
Retry sector count : 0
Damaged sector count : 0

Track 13

Track gain : -2.87 dB
Peak : 0.935944
CRC32 hash (test run) : 83ACD84A
CRC32 hash : 83ACD84A
CRC32 hash (skip zero) : 7BF87C5D
AccurateRip v1 signature : 0F266550
AccurateRip v2 signature : FBD908C7
->Accurately ripped (v2, confidence 4/4)
Statistics
Read error : 0
Jitter error (maybe fixed) : 0
Retry sector count : 0
Damaged sector count : 0

Track 14

Track gain : -1.52 dB
Peak : 0.877075
CRC32 hash (test run) : 572EFC01
CRC32 hash : 572EFC01
CRC32 hash (skip zero) : 6F348D67
AccurateRip v1 signature : C7137935
AccurateRip v2 signature : 1A5493F4
->Accurately ripped (v2, confidence 4/4)
Statistics
Read error : 0
Jitter error (maybe fixed) : 0
Retry sector count : 0
Damaged sector count : 0

Track 15

Track gain : -4.27 dB
Peak : 0.978790
CRC32 hash (test run) : 3B9EAB61
CRC32 hash : 3B9EAB61
CRC32 hash (skip zero) : 20C8EAA5
AccurateRip v1 signature : FCB25872
AccurateRip v2 signature : 490BC1BB
->Accurately ripped (v2, confidence 4/4)
Statistics
Read error : 0
Jitter error (maybe fixed) : 0
Retry sector count : 0
Damaged sector count : 0

Track 16

Track gain : -5.48 dB
Peak : 0.984436
CRC32 hash (test run) : 8D0E4D6C
CRC32 hash : 8D0E4D6C
CRC32 hash (skip zero) : E10B205C
AccurateRip v1 signature : 458F95E0
AccurateRip v2 signature : EC831F51
->Accurately ripped (v2, confidence 3/3)
Statistics
Read error : 0
Jitter error (maybe fixed) : 0
Retry sector count : 0
Damaged sector count : 0

Track 17

Track gain : 0.87 dB
Peak : 0.748657
CRC32 hash (test run) : C41507B4
CRC32 hash : C41507B4
CRC32 hash (skip zero) : C1F1554E
AccurateRip v1 signature : 5906C0EB
AccurateRip v2 signature : B5A2285B
->Accurately ripped (v2, confidence 4/4)
Statistics
Read error : 0
Jitter error (maybe fixed) : 0
Retry sector count : 0
Damaged sector count : 0

Track 18

Track gain : 0.70 dB
Peak : 0.949463
CRC32 hash (test run) : 6F34506B
CRC32 hash : 6F34506B
CRC32 hash (skip zero) : 26792805
AccurateRip v1 signature : 4AB96690
AccurateRip v2 signature : A17C13F5
->Accurately ripped (v2, confidence 4/4)
Statistics
Read error : 0
Jitter error (maybe fixed) : 0
Retry sector count : 0
Damaged sector count : 0

Track 19

Track gain : 0.02 dB
Peak : 0.937378
CRC32 hash (test run) : CC5F7D13
CRC32 hash : CC5F7D13
CRC32 hash (skip zero) : F6CD5AFF
AccurateRip v1 signature : 4995003F
AccurateRip v2 signature : B47CD078
->Accurately ripped (v2, confidence 4/4)
Statistics
Read error : 0
Jitter error (maybe fixed) : 0
Retry sector count : 0
Damaged sector count : 0

Track 20

Track gain : 1.77 dB
Peak : 0.933990
CRC32 hash (test run) : 10AE9839
CRC32 hash : 10AE9839
CRC32 hash (skip zero) : FF94E8BC
AccurateRip v1 signature : 97D14BCC
AccurateRip v2 signature : 7FE3FA43
->Accurately ripped (v2, confidence 4/4)
Statistics
Read error : 0
Jitter error (maybe fixed) : 0
Retry sector count : 0
Damaged sector count : 0

Track 21

Track gain : -4.28 dB
Peak : 0.981903
CRC32 hash (test run) : 1F67E508
CRC32 hash : 1F67E508
CRC32 hash (skip zero) : FB499443
AccurateRip v1 signature : 8A6F3BF5
AccurateRip v2 signature : 44E5E7B3
->Accurately ripped (v2, confidence 4/4)
Statistics
Read error : 0
Jitter error (maybe fixed) : 0
Retry sector count : 0
Damaged sector count : 0

Track 22

Track gain : -5.97 dB
Peak : 0.976227
CRC32 hash (test run) : 111DBACD
CRC32 hash : 111DBACD
CRC32 hash (skip zero) : 1D80B3DD
AccurateRip v1 signature : DB7F62F3
AccurateRip v2 signature : 6A204356
->Accurately ripped (v2, confidence 5/5)
Statistics
Read error : 0
Jitter error (maybe fixed) : 0
Retry sector count : 0
Damaged sector count : 0

Track 23

Track gain : -2.91 dB
Peak : 0.955170
CRC32 hash (test run) : 19168578
CRC32 hash : 19168578
CRC32 hash (skip zero) : ECB2FBD5
AccurateRip v1 signature : BCD3ED93
AccurateRip v2 signature : F8D55E06
->Accurately ripped (v2, confidence 5/5)
Statistics
Read error : 0
Jitter error (maybe fixed) : 0
Retry sector count : 0
Damaged sector count : 0

Track 24

Track gain : -9.62 dB
Peak : 0.999969
CRC32 hash (test run) : 9A7E7F99
CRC32 hash : 9A7E7F99
CRC32 hash (skip zero) : B03639C9
AccurateRip v1 signature : 9F616116
AccurateRip v2 signature : E532A324
->Accurately ripped (v2, confidence 5/5)
Statistics
Read error : 0
Jitter error (maybe fixed) : 0
Retry sector count : 0
Damaged sector count : 0

No errors occurred

End of status report

––-BEGIN XLD SIGNATURE––-
QYn2ihrxVSGKsQh5adnjZcwnWGXqmolXysbi0IvxfWD4m2834w5MH.wpdQ4P3A3vxKqceMuDRuxKqOLaXCRrdXH318oDwPWRY0XiBnC
––-END XLD SIGNATURE––-

Hervé Niquet, Brussels Philharmonic Orchestra, Flemish Radio Choir - Félicien David: Herculanum (2015)

Thanks to the original releaser