Subcategories

Hervé Niquet, Brussels Philharmonic - Victorin Joncières: Dimitri (2014)

Posted By: ArlegZ
Hervé Niquet, Brussels Philharmonic - Victorin Joncières: Dimitri (2014)

Hervé Niquet, Brussels Philharmonic - Victorin Joncières: Dimitri (2014)
EAC | FLAC | Image (Cue & Log) ~ 668 Mb | Total time: 61:51+68:47 | Scans included
Classical | Label: Bru Zane | # ES 1015 | Recorded: 2013

Joncières epitomises the Romantic artist fascinated by nobility and grandeur. This is clear from the titles of his works alone: Sardanapale, Lancelot, Le Dernier Jour de Pompéi, Le Chevalier Jean, Dimitri. Listening to the latter, his masterpiece (1876), we realise too that he was a contemporary of Gounod and a champion of Wagner. Dimitri carries on the tradition (begun by Meyerbeer) of spectacular, monumental works. It takes the listener from a monastery near the River Don to a palace in Krakow, then to the castle of Wyksa and finally the Kremlin in Moscow. At the time it was written, Bayreuth, Orange and Béziers were about to turn opera into a popular art with mass appeal.

Performer:
Dimitri - Philippe Talbot
Marina - Gabrielle Philiponet
Marpha - Nora Gubisch
Le Comte de Lusace - Andrew Foster-Williams
Vanda - Jennifer Borghi
L’Archevêque Job - Nicolas Courjal
Le Prieur - Julien Véronèse
Le Roi de Pologne - Jean Teitgen
Le Chef des Bohémiens/ Un Officier - Joris Derder
Une Dame d'honneur - Lore Binon
Flanders Opera Children’s Chorus
Flemish Radio Choir
Brussels Philharmonic
Conductor - Hervé Niquet

Track List:
CD1:
Acte premier
01. Ouverture
02. Scène 1 - “Hourrah ! Hourrah ! Gloire aux Cosaques !” (Les Cosaques)
03. Scène 2 - “Le Prieur !” (Le Prieur, Dimitri)
04. Scène 3 - “Les Tsiganes à perdre haleine” (Les Bohémiens, Le Chef des Bohémiens)
05. Scène 3 - “Quelle fatigue ! Ah ! je succombe !” (Marina)
06. Scène 4 - “Marina !” (Marina, Dimitri)
07. Scène 4 - “Le cœur brisé j’ai fui loin de mon père” (Marina, Dimitri)
08. Scène 4 - “Exauce-nous, Seigneur” (Le Prieur, Marina, Dimitri)
09. Scène 5 - “Moine, écoute !” (Lusace, Le Prieur)
10. Scène 5 - “Que dis-tu ?” (Le Prieur, Lusace)
11. Scène 6 - “Pâles étoiles” (Marina)
12. Scène 7 - “Marina… Viens, c’est moi !…” (Marina, Dimitri)
Acte deuxième
13. Prélude
14. Scène 1 - “Palais plein de lumière” (Les Femmes de Vanda, Vanda)
15. Scène 2 - “Enfin, Comte, c’est toi !” (Vanda, Lusace)
16. Scène 3 - “Pauvre femme !…” (Lusace)
17. Scène 4 - “Comte, tu m’attendais !” (Dimitri, Lusace)
18. Scène 4 - “C’est Marina que ton âme préfère” (Lusace, Dimitri)
19. Scène 5 - “Pour les rois cette fête est faite” (Les Invités, Vanda, Dimitri, Lusace)
20. Scène 6 - “Sire, daignez permettre” (Vanda, Le Roi de Pologne, Dimitri, Lusace, Les Invités, Le Prieur)
21. Scène 6 - “Amour, verse en mon âme” (Vanda, Dimitri, Lusace, Les Invités, Le Roi de Pologne, Le Prieur)
CD2:
Acte troisième, Premier tableau
01. Prélude
02. Scène 1 - “Hélas ! je le vois bien” (Marina, Marpha)
03. Scène 1 - “Pourquoi parler d’espérance ?” (Marpha, Marina)
04. Scène 1 - “Au nom du Tsar Boris” (Une Dame d’honneur, Marpha)
05. Scène 2 - “Je viens ici, madame” (Job, Marpha)
06. Scène 2 - “Enfin le voici donc le jour de la vengeance” (Marpha, Job)
07. Scène 3 - “Mon fils ! il est mon fils” (Marpha)
Acte troisième, Deuxième tableau
08. Prélude
09. Scène 1 - “Vous voyez le Kremlin !” (Dimitri); Scène 2 - “Toi, demeure ꞉ plus que jamais” (Dimitri, Le Prieur)
10. Scène 3 - “Moscou, voici la ville sainte…” (Dimitri)
11. Scène 4 - “Hourra ! Hourra !” (Les Officiers, Dimitri, Le Prieur); Scène 5 - “Toi ! Vanda ! En ces lieux…” (Lusace, Vanda)
12. Scène 5 - Ballet ꞉ Kolomyiaka
Acte quatrième, Premier tableau
13. Scène 1 - “Amis, buvons car c’est la trêve !” (Les Buveurs, Lusace, Dimitri)
14. Scène 2 - “ Je viens d’ordonner, ce me semble” (Dimitri, Lusace)
15. Scène 2 - “Voilà quinze ans– écoute cette histoire –” (Lusace, Dimitri)
16. Scène 3 - “Tsar !” (Un Officier, Dimitri, Marpha)
17. Scène 4 - “Voici la vérité, madame” (Dimitri, Marpha)
18. Scène 4 - “Ce matin, j’attendais, plein d’une douce ivresse” (Dimitri, Marpha)
19. Scène 5 - “Les boyards de Moscou” (Un Officier)
20. Scène 6 - “Eh bien, devant mon peuple” (Dimitri)
Acte quatrième, Deuxième tableau
21. Final - “Vive le tsar ! Vive Marpha !” (La Foule, Le Prieur)
22. Final - “Salut Dimitri, notre maître” (Les Boyards, Dimitri, Marpha, Vanda)
23. Scène 1 - “Tout à l’heure à cette fenêtre” (Vanda)
Acte cinquième
24. Scène 1 - “Mais un vengeur est là” (Vanda)
25. Scène 2 - “Voici l’instant, ma fiancée” (Dimitri, Marina, Vanda, Lusace)
26. Scène 2 - Marche du couronnement
27. Scène 3 - “Arrête, Tsar” (Job, Marpha, La Foule, Les Partisans de Dimitri, Les Ennemis de Dimitri, Dimitri)


Exact Audio Copy V1.2 from 12. August 2016

EAC extraction logfile from 17. November 2019, 14:06

Hervé Niquet, Brussels Philharmonic / Dimitri (Disc 1 of 2)

Used drive : MATSHITADVD-RAM UJ8G6 Adapter: 1 ID: 0

Read mode : Secure
Utilize accurate stream : Yes
Defeat audio cache : Yes
Make use of C2 pointers : No

Read offset correction : 103
Overread into Lead-In and Lead-Out : No
Fill up missing offset samples with silence : Yes
Delete leading and trailing silent blocks : No
Null samples used in CRC calculations : Yes
Used interface : Native Win32 interface for Win NT & 2000

Used output format : User Defined Encoder
Selected bitrate : 768 kBit/s
Quality : High
Add ID3 tag : No
Command line compressor : C:\Program Files (x86)\Exact Audio Copy\Flac\flac.exe
Additional command line options : -6 -V -T "ARTIST=%artist%" -T "TITLE=%title%" -T "ALBUM=%albumtitle%" -T "DATE=%year%" -T "TRACKNUMBER=%tracknr%" -T "GENRE=%genre%" -T "COMMENT=%comment%" -T "BAND=%albuminterpret%" -T "ALBUMARTIST=%albuminterpret%" -T "DISCNUMBER=%cdnumber%" -T "TOTALDISCS=%totalcds%" -T "TOTALTRACKS=%numtracks%" %hascover%–picture="%coverfile%"%hascover% %source% -o %dest% -T "RIPPER=Roy@Susato"


TOC of the extracted CD

Track | Start | Length | Start sector | End sector
––––––––––––––––––––––––––––-
1 | 0:00.00 | 6:39.11 | 0 | 29935
2 | 6:39.11 | 1:06.39 | 29936 | 34924
3 | 7:45.50 | 6:20.47 | 34925 | 63471
4 | 14:06.22 | 3:42.26 | 63472 | 80147
5 | 17:48.48 | 1:52.63 | 80148 | 88610
6 | 19:41.36 | 2:24.73 | 88611 | 99483
7 | 22:06.34 | 4:42.31 | 99484 | 120664
8 | 26:48.65 | 2:05.11 | 120665 | 130050
9 | 28:54.01 | 1:25.34 | 130051 | 136459
10 | 30:19.35 | 2:14.58 | 136460 | 146567
11 | 32:34.18 | 1:49.50 | 146568 | 154792
12 | 34:23.68 | 2:27.56 | 154793 | 165873
13 | 36:51.49 | 1:51.05 | 165874 | 174203
14 | 38:42.54 | 2:21.50 | 174204 | 184828
15 | 41:04.29 | 3:08.51 | 184829 | 198979
16 | 44:13.05 | 2:52.35 | 198980 | 211914
17 | 47:05.40 | 3:12.30 | 211915 | 226344
18 | 50:17.70 | 1:17.41 | 226345 | 232160
19 | 51:35.36 | 3:35.29 | 232161 | 248314
20 | 55:10.65 | 3:41.54 | 248315 | 264943
21 | 58:52.44 | 2:57.09 | 264944 | 278227


Range status and errors

Selected range

Filename C:\Users\Roy\Music\JONCIÈRES - Dimitri () [Niquet; Ediciones Singulares]\CD (FLAC + CUE)\CD 1\Victorin Joncières - Dimitri (Disc 1 of 2).wav

Peak level 100.0 %
Extraction speed 2.6 X
Range quality 100.0 %
Test CRC B6DF671B
Copy CRC B6DF671B
Copy OK

No errors occurred


AccurateRip summary

Track 1 accurately ripped (confidence 1) [E6F62313] (AR v2)
Track 2 accurately ripped (confidence 1) [0F1ECB1E] (AR v2)
Track 3 accurately ripped (confidence 1) [9B25747E] (AR v2)
Track 4 accurately ripped (confidence 1) [9090C363] (AR v2)
Track 5 accurately ripped (confidence 1) [C02DFD67] (AR v2)
Track 6 accurately ripped (confidence 1) [72BD6DF4] (AR v2)
Track 7 accurately ripped (confidence 1) [7A2932AD] (AR v2)
Track 8 accurately ripped (confidence 1) [07B1122E] (AR v2)
Track 9 accurately ripped (confidence 1) [ED8DE49D] (AR v2)
Track 10 accurately ripped (confidence 1) [C20CAF72] (AR v2)
Track 11 accurately ripped (confidence 1) [55CE087C] (AR v2)
Track 12 accurately ripped (confidence 1) [91A7F991] (AR v2)
Track 13 accurately ripped (confidence 1) [D5B4189D] (AR v2)
Track 14 accurately ripped (confidence 1) [A9948D69] (AR v2)
Track 15 accurately ripped (confidence 1) [8298523D] (AR v2)
Track 16 accurately ripped (confidence 1) [D0DE1078] (AR v2)
Track 17 accurately ripped (confidence 1) [718C9429] (AR v2)
Track 18 accurately ripped (confidence 1) [14D8C893] (AR v2)
Track 19 accurately ripped (confidence 1) [59A16EB0] (AR v2)
Track 20 accurately ripped (confidence 1) [986F98F9] (AR v2)
Track 21 accurately ripped (confidence 1) [4EDFABCE] (AR v2)

All tracks accurately ripped

End of status report

–– CUETools DB Plugin V2.1.6

[CTDB TOCID: IFNhl45gJ1AjZlyRA8lUM8jKFmc-] found
Submit result: IFNhl45gJ1AjZlyRA8lUM8jKFmc- has been confirmed
Track | CTDB Status
1 | (3/3) Accurately ripped
2 | (3/3) Accurately ripped
3 | (3/3) Accurately ripped
4 | (3/3) Accurately ripped
5 | (3/3) Accurately ripped
6 | (3/3) Accurately ripped
7 | (3/3) Accurately ripped
8 | (3/3) Accurately ripped
9 | (3/3) Accurately ripped
10 | (3/3) Accurately ripped
11 | (3/3) Accurately ripped
12 | (3/3) Accurately ripped
13 | (3/3) Accurately ripped
14 | (3/3) Accurately ripped
15 | (3/3) Accurately ripped
16 | (3/3) Accurately ripped
17 | (3/3) Accurately ripped
18 | (3/3) Accurately ripped
19 | (3/3) Accurately ripped
20 | (3/3) Accurately ripped
21 | (3/3) Accurately ripped


==== Log checksum 94CA4E18F0D79C096BE81AB4B66F40381E903AF62F340FD3618171C0EB4AAE27 ====


Exact Audio Copy V1.2 from 12. August 2016

EAC extraction logfile from 17. November 2019, 15:07

Hervé Niquet, Brussels Philharmonic / Dimitri (Disc 2 of 2)

Used drive : MATSHITADVD-RAM UJ8G6 Adapter: 1 ID: 0

Read mode : Secure
Utilize accurate stream : Yes
Defeat audio cache : Yes
Make use of C2 pointers : No

Read offset correction : 103
Overread into Lead-In and Lead-Out : No
Fill up missing offset samples with silence : Yes
Delete leading and trailing silent blocks : No
Null samples used in CRC calculations : Yes
Used interface : Native Win32 interface for Win NT & 2000

Used output format : User Defined Encoder
Selected bitrate : 768 kBit/s
Quality : High
Add ID3 tag : No
Command line compressor : C:\Program Files (x86)\Exact Audio Copy\Flac\flac.exe
Additional command line options : -6 -V -T "ARTIST=%artist%" -T "TITLE=%title%" -T "ALBUM=%albumtitle%" -T "DATE=%year%" -T "TRACKNUMBER=%tracknr%" -T "GENRE=%genre%" -T "COMMENT=%comment%" -T "BAND=%albuminterpret%" -T "ALBUMARTIST=%albuminterpret%" -T "DISCNUMBER=%cdnumber%" -T "TOTALDISCS=%totalcds%" -T "TOTALTRACKS=%numtracks%" %hascover%–picture="%coverfile%"%hascover% %source% -o %dest% -T "RIPPER=Roy@Susato"


TOC of the extracted CD

Track | Start | Length | Start sector | End sector
––––––––––––––––––––––––––––-
1 | 0:00.00 | 0:38.16 | 0 | 2865
2 | 0:38.16 | 2:30.52 | 2866 | 14167
3 | 3:08.68 | 4:13.67 | 14168 | 33209
4 | 7:22.60 | 0:36.15 | 33210 | 35924
5 | 7:59.00 | 3:28.64 | 35925 | 51588
6 | 11:27.64 | 3:17.11 | 51589 | 66374
7 | 14:45.00 | 5:22.34 | 66375 | 90558
8 | 20:07.34 | 0:40.22 | 90559 | 93580
9 | 20:47.56 | 3:06.01 | 93581 | 107531
10 | 23:53.57 | 1:19.72 | 107532 | 113528
11 | 25:13.54 | 3:22.25 | 113529 | 128703
12 | 28:36.04 | 2:20.03 | 128704 | 139206
13 | 30:56.07 | 4:54.28 | 139207 | 161284
14 | 35:50.35 | 0:53.57 | 161285 | 165316
15 | 36:44.17 | 2:35.38 | 165317 | 176979
16 | 39:19.55 | 1:30.49 | 176980 | 183778
17 | 40:50.29 | 1:13.13 | 183779 | 189266
18 | 42:03.42 | 2:56.68 | 189267 | 202534
19 | 45:00.35 | 0:22.24 | 202535 | 204208
20 | 45:22.59 | 3:53.48 | 204209 | 221731
21 | 49:16.32 | 1:38.52 | 221732 | 229133
22 | 50:55.09 | 2:34.48 | 229134 | 240731
23 | 53:29.57 | 3:20.71 | 240732 | 255802
24 | 56:50.53 | 1:26.11 | 255803 | 262263
25 | 58:16.64 | 4:16.12 | 262264 | 281475
26 | 62:33.01 | 0:53.64 | 281476 | 285514
27 | 63:26.65 | 5:18.59 | 285515 | 309423


Range status and errors

Selected range

Filename C:\Users\Roy\Music\JONCIÈRES - Dimitri (2013) [Niquet; Ediciones Singulares]\CD (FLAC + CUE)\CD 2\Victorin Joncières - Dimitri (Disc 2 of 2).wav

Peak level 100.0 %
Extraction speed 2.7 X
Range quality 100.0 %
Test CRC 86C2C79E
Copy CRC 86C2C79E
Copy OK

No errors occurred


AccurateRip summary

Track 1 accurately ripped (confidence 1) [4462960D] (AR v2)
Track 2 accurately ripped (confidence 1) [AF68CF0F] (AR v2)
Track 3 accurately ripped (confidence 1) [0EAA478C] (AR v2)
Track 4 accurately ripped (confidence 1) [CB2CCB1F] (AR v2)
Track 5 accurately ripped (confidence 1) [95CC5C5D] (AR v2)
Track 6 accurately ripped (confidence 1) [93FDD7CB] (AR v2)
Track 7 accurately ripped (confidence 1) [AF7B71B3] (AR v2)
Track 8 accurately ripped (confidence 1) [4146A534] (AR v2)
Track 9 accurately ripped (confidence 1) [5E34B54B] (AR v2)
Track 10 accurately ripped (confidence 1) [A3BCFC62] (AR v2)
Track 11 accurately ripped (confidence 1) [4BAB361B] (AR v2)
Track 12 accurately ripped (confidence 1) [9C4D5897] (AR v2)
Track 13 accurately ripped (confidence 1) [FEEA43C3] (AR v2)
Track 14 accurately ripped (confidence 1) [14E9DD33] (AR v2)
Track 15 accurately ripped (confidence 1) [66DEA057] (AR v2)
Track 16 accurately ripped (confidence 1) [3B3C648C] (AR v2)
Track 17 accurately ripped (confidence 1) [03F3BFF2] (AR v2)
Track 18 accurately ripped (confidence 1) [AF182B6E] (AR v2)
Track 19 accurately ripped (confidence 1) [2960A357] (AR v2)
Track 20 accurately ripped (confidence 1) [9F46E102] (AR v2)
Track 21 accurately ripped (confidence 1) [4ACCEFEE] (AR v2)
Track 22 accurately ripped (confidence 1) [3CE47704] (AR v2)
Track 23 accurately ripped (confidence 1) [D299FAAE] (AR v2)
Track 24 accurately ripped (confidence 1) [DEFBECD5] (AR v2)
Track 25 accurately ripped (confidence 1) [B9F4D967] (AR v2)
Track 26 accurately ripped (confidence 1) [8A15091D] (AR v2)
Track 27 accurately ripped (confidence 1) [BA0BA9C5] (AR v2)

All tracks accurately ripped

End of status report

–– CUETools DB Plugin V2.1.6

[CTDB TOCID: ZH8wJzzZ.kGlZ3aa9s3BUGATQw0-] found
Submit result: ZH8wJzzZ.kGlZ3aa9s3BUGATQw0- has been confirmed
Track | CTDB Status
1 | (3/3) Accurately ripped
2 | (3/3) Accurately ripped
3 | (3/3) Accurately ripped
4 | (3/3) Accurately ripped
5 | (3/3) Accurately ripped
6 | (3/3) Accurately ripped
7 | (3/3) Accurately ripped
8 | (3/3) Accurately ripped
9 | (3/3) Accurately ripped
10 | (3/3) Accurately ripped
11 | (3/3) Accurately ripped
12 | (3/3) Accurately ripped
13 | (3/3) Accurately ripped
14 | (3/3) Accurately ripped
15 | (3/3) Accurately ripped
16 | (3/3) Accurately ripped
17 | (3/3) Accurately ripped
18 | (3/3) Accurately ripped
19 | (3/3) Accurately ripped
20 | (3/3) Accurately ripped
21 | (3/3) Accurately ripped
22 | (3/3) Accurately ripped
23 | (3/3) Accurately ripped
24 | (3/3) Accurately ripped
25 | (3/3) Accurately ripped
26 | (3/3) Accurately ripped
27 | (3/3) Accurately ripped


==== Log checksum 25E9EE075CFE130769EA2BF06F613453D1B8F6BDA7111683EA456C558385C8D6 ====

Hervé Niquet, Brussels Philharmonic - Victorin Joncières: Dimitri (2014)

Thanks to the original releaser