Tags
Language
Tags

Hidemi Suzuki, Makoto Akatsu, Orchestra 'Van Wassenaer' - Leonardo Leo: Six Cello Concertos (2000)

Posted By: ArlegZ
Hidemi Suzuki, Makoto Akatsu, Orchestra 'Van Wassenaer' - Leonardo Leo: Six Cello Concertos (2000)

Hidemi Suzuki, Makoto Akatsu, Orchestra 'Van Wassenaer' - Leonardo Leo: Six Cello Concertos (2000)
EAC | FLAC | Image (Cue & Log) ~ 432 Mb | Total time: 79:30 | Scans included
Classical | Label: BIS | # BIS-CD-1057 | Recorded: 1999

It won't do to claim the cello concertos of Leonardo Leo (1694-1744) as unknown masterpieces. But if you enjoy hearing a composer struggle with musical materials in an era of transition (might be relevant to today's scene, eh?), you'll find these interesting. Leo was posthumously praised by both Charles Burney and E.T.A. Hoffmann, but today he is known vaguely, if at all, as one of the forerunners of Classical-era opera. These six concertos were written in 1737 and 1738 for Leo's patron Domenico Marzio Caraffa, the Duke of Maddaloni, and they were cutting-edge stuff at the time – partly, at least. Sometimes this music sounds 30 years older than it is, sometimes 30 years ahead of its time. Leo sticks (except in the five-movement Concerto No. 2, which includes a fugue) to the four-movement sonata da chiesa pattern of the early eighteenth century, and his way of thinking is remarkably contrapuntal for someone whose reputation has been as a melodist. The fast-tempo second movements of several of the concertos, though, rank near the beginning of the chronology of music recognizably displaying what would become known as sonata form. If you heard an unannotated performance of the second movement of the Concerto No. 3, with its varied harmonic rhythms, you might almost take it for early Haydn. You can also hear Leo working out the idea of contrasting themes, and trying to match it up with the concerto's solo-and-tutti contrast.
– James Manheim

Performer:
Hidemi Suzuki, baroque cello, cello piccolo
Orchestra 'Van Wassenaer'
Makoto Akatsu, violin, director

Track List:
Concerto No.4 in A major
01. I. Andante piacevole
02. II. Allegro
03. III. Larghetto e gustoso
04. IV. Allegro
Concerto No.5 in F minor
05. I. Andante grazioso
06. II. Allegro
07. III. Segue il cantabile - Largo e gustoso
08. IV. Allegro
Concerto No.1 in A major
09. I. Andantino grazioso
10. II. Allegro
11. III. Larghetto a mezza voce
12. IV. Allegro
Concerto No.3 in D minor
13. I. Andante grazioso
14. II. [Con spirito]
15. III. Amoroso - mezza voce
16. IV. Allegro
Concerto No.2 in D major
17. I. Andante grazioso
18. II. Con Bravura
19. III. Larghetto, con poco moto - mezza voce
20. IV. Fuga. Per il portamento dell´imitazione del 2 pensiere, o soggetto mi con fervito della risposta d´imitazione
21. V. [Allegro di molto]
Sinfonia concertata (Concerto No.6) in C minor
22. I. Andante grazioso
23. II. Presto
24. III. Larghetto
25. IV. Allegro


Exact Audio Copy V1.3 from 2. September 2016

EAC extraction logfile from 3. June 2018, 18:25

Hidemi Suzuki, Orchestra 'Van Wassenaer', Makoto Akatsu / Leonardo Leo - Six Cello Concertos

Used drive : PLDS DVD-RW DU8A6SH Adapter: 1 ID: 0

Read mode : Secure
Utilize accurate stream : Yes
Defeat audio cache : Yes
Make use of C2 pointers : No

Read offset correction : 6
Overread into Lead-In and Lead-Out : No
Fill up missing offset samples with silence : Yes
Delete leading and trailing silent blocks : No
Null samples used in CRC calculations : Yes
Used interface : Native Win32 interface for Win NT & 2000

Used output format : User Defined Encoder
Selected bitrate : 128 kBit/s
Quality : High
Add ID3 tag : No
Command line compressor : C:\Program Files (x86)\Exact Audio Copy\Flac\flac.exe
Additional command line options : -V -8 -T "Date=%year%" -T "Genre=%genre%" %source%

TOC of the extracted CD

Track | Start | Length | Start sector | End sector
––––––––––––––––––––––––––––-
1 | 0:00.00 | 2:34.07 | 0 | 11556
2 | 2:34.07 | 3:45.15 | 11557 | 28446
3 | 6:19.22 | 4:19.28 | 28447 | 47899
4 | 10:38.50 | 3:28.35 | 47900 | 63534
5 | 14:07.10 | 4:20.27 | 63535 | 83061
6 | 18:27.37 | 2:58.25 | 83062 | 96436
7 | 21:25.62 | 4:24.00 | 96437 | 116236
8 | 25:49.62 | 3:13.30 | 116237 | 130741
9 | 29:03.17 | 2:48.00 | 130742 | 143341
10 | 31:51.17 | 2:33.65 | 143342 | 154881
11 | 34:25.07 | 2:53.10 | 154882 | 167866
12 | 37:18.17 | 2:28.70 | 167867 | 179036
13 | 39:47.12 | 3:47.18 | 179037 | 196079
14 | 43:34.30 | 3:14.02 | 196080 | 210631
15 | 46:48.32 | 3:13.08 | 210632 | 225114
16 | 50:01.40 | 3:23.52 | 225115 | 240391
17 | 53:25.17 | 3:41.65 | 240392 | 257031
18 | 57:07.07 | 2:34.63 | 257032 | 268644
19 | 59:41.70 | 2:50.52 | 268645 | 281446
20 | 62:32.47 | 2:23.13 | 281447 | 292184
21 | 64:55.60 | 2:05.52 | 292185 | 301611
22 | 67:01.37 | 3:06.15 | 301612 | 315576
23 | 70:07.52 | 1:59.48 | 315577 | 324549
24 | 72:07.25 | 4:06.15 | 324550 | 343014
25 | 76:13.40 | 3:08.20 | 343015 | 357134

Range status and errors

Selected range

Filename C:\temp\BIS-CD-1057 - Leonardo Leo - Six Cello Concertos\Leonardo Leo - Six Cello Concertos.wav

Peak level 100.0 %
Extraction speed 4.3 X
Range quality 100.0 %
Test CRC 8802D953
Copy CRC 8802D953
Copy OK

No errors occurred

AccurateRip summary

Track 1 cannot be verified as accurate (confidence 2) [91C17E52], AccurateRip returned [B1FB7280] (AR v2)
Track 2 cannot be verified as accurate (confidence 2) [3D9D06BF], AccurateRip returned [8A07200F] (AR v2)
Track 3 cannot be verified as accurate (confidence 2) [6CD856CA], AccurateRip returned [7455D75C] (AR v2)
Track 4 cannot be verified as accurate (confidence 2) [29AB5E23], AccurateRip returned [949B9F29] (AR v2)
Track 5 cannot be verified as accurate (confidence 2) [6E4693EE], AccurateRip returned [8B8D7C32] (AR v2)
Track 6 cannot be verified as accurate (confidence 2) [04190458], AccurateRip returned [7683C5F6] (AR v2)
Track 7 cannot be verified as accurate (confidence 2) [8A06C922], AccurateRip returned [29CE29A6] (AR v2)
Track 8 cannot be verified as accurate (confidence 2) [92F981D3], AccurateRip returned [EF5DDE49] (AR v2)
Track 9 cannot be verified as accurate (confidence 2) [C26F95A1], AccurateRip returned [648A3AC9] (AR v2)
Track 10 cannot be verified as accurate (confidence 2) [D2A66443], AccurateRip returned [2B970936] (AR v2)
Track 11 cannot be verified as accurate (confidence 2) [5DBD9109], AccurateRip returned [111F7784] (AR v2)
Track 12 cannot be verified as accurate (confidence 2) [0E36390B], AccurateRip returned [ABE6C35A] (AR v2)
Track 13 cannot be verified as accurate (confidence 2) [52B8BDDA], AccurateRip returned [0BC2DB34] (AR v2)
Track 14 cannot be verified as accurate (confidence 2) [77BF2310], AccurateRip returned [7DED89C2] (AR v2)
Track 15 cannot be verified as accurate (confidence 2) [3AF54A75], AccurateRip returned [14540E88] (AR v2)
Track 16 cannot be verified as accurate (confidence 2) [C322008E], AccurateRip returned [B05ACAF5] (AR v2)
Track 17 cannot be verified as accurate (confidence 2) [B45EC153], AccurateRip returned [49931A29] (AR v2)
Track 18 cannot be verified as accurate (confidence 2) [5C4DF4B1], AccurateRip returned [204E5677] (AR v2)
Track 19 cannot be verified as accurate (confidence 2) [84A579B0], AccurateRip returned [4C9643E2] (AR v2)
Track 20 cannot be verified as accurate (confidence 2) [B1356907], AccurateRip returned [A8CB9AA5] (AR v2)
Track 21 cannot be verified as accurate (confidence 2) [555D2C38], AccurateRip returned [09BF9791] (AR v2)
Track 22 cannot be verified as accurate (confidence 2) [F4F8D1BE], AccurateRip returned [D298366B] (AR v2)
Track 23 cannot be verified as accurate (confidence 2) [4EED1BE0], AccurateRip returned [E6973FF0] (AR v2)
Track 24 cannot be verified as accurate (confidence 2) [FD66C521], AccurateRip returned [7BA0B2F3] (AR v2)
Track 25 cannot be verified as accurate (confidence 2) [866F6AB8], AccurateRip returned [1CD3EC28] (AR v2)

No tracks could be verified as accurate
You may have a different pressing from the one(s) in the database

End of status report

==== Log checksum 1148F224F514AE1CBA3BE23371339271D4AF1C87EB5EE084B56322D70CD48E5B ====

Hidemi Suzuki, Makoto Akatsu, Orchestra 'Van Wassenaer' - Leonardo Leo: Six Cello Concertos (2000)

Thanks to the original releaser