Subcategories
Tags
Language
Tags

VA - Hits Of The 80's (2011)

Posted By: v3122
VA - Hits Of The 80's (2011)

VA - Hits Of The 80's (2011)
EAC | Flac(Image) + Cue + Log & MP3 CBR 320Kbps
MCPS, 2030 | ~ 495 or 167 Mb | Scans(jpg) -> 26 Mb
Pop, Disco, Pop Rock, Soul

~ Donna Summer, Billy Ocean, George McCrae, Limahl and many more! ~

VA - Hits Of The 80's (2011):

VA - Hits Of The 80's (2011)

Tracklist:

01. Tina Charles - I Love To Love (02:33)
02. Gibson Brothers - Que Sera Mi Vida (If You Should Go) (05:14)
03. Stephanie - Irresistible (04:40)
04. T-Connection - At Midnight (05:26)
05. George McCrae - Rock Your Baby (:03:16)
06. Limahl - Too Shy (Kajagoogoo) (03:37)
07. Donna Summer - Funstreet (05:40)
08. The Real Thing - Can You Feel The Force (05:55)
09. 5000 Volts - I'm On Fire (02:48)
10. Billy Ocean - Love Really Hurts Without You (03:11)
11. Chuck Jackson - Relight My Fire (04:20)
12. Jimmy Bo Horne - Spank (3:42)
13. Joe Tex - Ain't Gonna Bump No More (06:42)
14. Shirley and Company - Shame, Shame, Shame (04:14)
15. Sylvester - You Make Me Feel (Mighty Real) (03:50)
16. Murray Head - One Night In Bangkok (04:06)

Exact Audio Copy V1.3 from 2. September 2016

Отчёт EAC об извлечении, выполненном 7. февраля 2018, 12:34

VA / Hits Of The 80s

Дисковод: LITE-ON CD-RW SOHR-5239V Adapter: 8 ID: 1

Режим чтения : Достоверность
Использование точного потока : Да
Отключение кэша аудио : Да
Использование указателей C2 : Нет

Коррекция смещения при чтении : 6
Способность читать области Lead-in и Lead-out : Нет
Заполнение пропущенных сэмплов тишиной : Да
Удаление блоков с тишиной в начале и конце : Нет
При вычислениях CRC использовались нулевые сэмплы : Да
Интерфейс : Установленный внешний ASPI-интерфейс

Выходной формат : Пользовательский кодировщик
Выбранный битрейт : 128 kBit/s
Качество : Высокий
Добавление ID3-тега : Нет
Утилита сжатия : C:\Program Files\Exact Audio Copy\FLAC\FLAC.EXE
Дополнительные параметры : -V -8 -T "Genre=%genre%" -T "Artist=%artist%" -T "Title=%title%" -T "Album=%albumtitle%" -T "Date=%year%" -T "Tracknumber=%tracknr%" -T "Comment=%comment%" %source%


TOC извлечённого CD

Трек | Старт | Длительность | Начальный сектор | Конечный сектор
––––––––––––––––––––––––––––––––––-
1 | 0:00.00 | 2:33.64 | 0 | 11538
2 | 2:33.64 | 5:14.74 | 11539 | 35162
3 | 7:48.63 | 4:40.18 | 35163 | 56180
4 | 12:29.06 | 5:26.21 | 56181 | 80651
5 | 17:55.27 | 3:16.64 | 80652 | 95415
6 | 21:12.16 | 3:37.07 | 95416 | 111697
7 | 24:49.23 | 5:40.62 | 111698 | 137259
8 | 30:30.10 | 5:55.21 | 137260 | 163905
9 | 36:25.31 | 2:48.09 | 163906 | 176514
10 | 39:13.40 | 3:11.50 | 176515 | 190889
11 | 42:25.15 | 4:20.59 | 190890 | 210448
12 | 46:45.74 | 3:42.49 | 210449 | 227147
13 | 50:28.48 | 6:42.07 | 227148 | 257304
14 | 57:10.55 | 4:14.56 | 257305 | 276410
15 | 61:25.36 | 3:50.38 | 276411 | 293698
16 | 65:15.74 | 4:06.53 | 293699 | 312201


Характеристики диапазона извлечения и сообщения об ошибках

Выбранный диапазон

Имя файла I:\MOI_RAZDACI\VA_Hits.Of.The.80s_2011\VA_Hits.Of.The.80s_2011\VA - Hits Of The 80s.wav

Пиковый уровень 100.0 %
Скорость извлечения 8.9 X
Качество диапазона 100.0 %
CRC теста 0B58B193
CRC копии 0B58B193
Копирование… OK

Ошибок не произошло


AccurateRip: сводка

Трек 1 отсутствует в базе данных
Трек 2 отсутствует в базе данных
Трек 3 отсутствует в базе данных
Трек 4 отсутствует в базе данных
Трек 5 отсутствует в базе данных
Трек 6 отсутствует в базе данных
Трек 7 отсутствует в базе данных
Трек 8 отсутствует в базе данных
Трек 9 отсутствует в базе данных
Трек 10 отсутствует в базе данных
Трек 11 отсутствует в базе данных
Трек 12 отсутствует в базе данных
Трек 13 отсутствует в базе данных
Трек 14 отсутствует в базе данных
Трек 15 отсутствует в базе данных
Трек 16 отсутствует в базе данных

Ни одного трека нет в базе AccurateRip

Конец отчёта

–– CUETools DB Plugin V2.1.6

[CTDB TOCID: 01JCn2ZA1eWaSgZSQMLYDT8htWo-] found
Submit result: 01JCn2ZA1eWaSgZSQMLYDT8htWo- has been confirmed
Track | CTDB Status
1 | (4/4) Accurately ripped
2 | (4/4) Accurately ripped
3 | (4/4) Accurately ripped
4 | (4/4) Accurately ripped
5 | (4/4) Accurately ripped
6 | (4/4) Accurately ripped
7 | (4/4) Accurately ripped
8 | (4/4) Accurately ripped
9 | (4/4) Accurately ripped
10 | (4/4) Accurately ripped
11 | (4/4) Accurately ripped
12 | (4/4) Accurately ripped
13 | (4/4) Accurately ripped
14 | (4/4) Accurately ripped
15 | (4/4) Accurately ripped
16 | (4/4) Accurately ripped


==== Контрольная сумма отчёта 1623B0C43BAF2F438623E9D36C3FF20FF6370243B0B74EEEAA92EBF2F6312CDC ====


[CUETools log; Date: 29.04.2018 16:02:33; Version: 2.1.5]
[AccurateRip ID: 00283a92-01e4f649-e1104210] disk not present in database.

Track Peak [ CRC32 ] [W/O NULL] [ LOG ]
– 100,0 [0B58B193] [97C613A7] CRC32
01 98,4 [321A2992] [389437C8]
02 69,9 [3375CEE2] [12EC1E8E]
03 98,7 [82F2BF44] [01C165C1]
04 98,8 [ED93A2E1] [A038E1C0]
05 100,0 [65612AC9] [2E7F73E5]
06 97,0 [01ECD3AD] [2B27A87F]
07 85,8 [B0D876B1] [782AD97E]
08 99,2 [BB03C534] [7A1AA718]
09 79,4 [9DE415D5] [08B55C73]
10 97,7 [1605F305] [7735C94D]
11 98,8 [A1BE6ECA] [9547ACAD]
12 100,0 [CBD7552E] [D20B1DDD]
13 97,7 [34CB9315] [AAD0CA10]
14 97,7 [F213021A] [69ED5FF5]
15 100,0 [8E8D0B46] [E2B23B2B]
16 89,2 [86C3CE31] [1C0FC948]


VA - Hits Of The 80's (2011)

All thanks go to the original releaser

Download VA - Hits Of The 80's (2011):