Subcategories

Holy Soldier - Holy Soldier (1990) (Japanese Ed.)

Posted By: Andi_Deris
Holy Soldier - Holy Soldier (1990) (Japanese Ed.)

Holy Soldier - Holy Soldier (1990) (Japanese Ed.)
EAC Rip | FLAC: Image+Cue+Log | 350 Mb | MP3 CBR 320 kbps | 125 Mb | Scans | 57 Mb | Time: 46:28
Genre: Hard Rock, Melodic Metal, CCM | Label: Pony Canyon | Cat.№: PCCY-10109

The band that Holy Soldier found itself compared to more than anyone was Stryper, which also used heavy metal/hard rock to promote Christianity. The style on this obscure CD is rooted in Gothic metal – sort of Judas Priest meets Ronnie James Dio meets Grim Reaper. But while tunes like "Eyes of Innocence," "When the Reign Comes Down" and "See No Evil" bear some resemblance to those bands musically, Holy Soldier's lyrics are obviously coming from an overtly Christian perspective. You won't find any endorsements of promiscuity or wild, all-night parties on this release, and you certainly won't encounter any pro-occult messages here. Most of the material is quite good; Holy Soldier had potential, but what it didn't have was Stryper's commercial success. The album bombed, and the vast majority of headbangers never even heard of the band. Nonetheless, metalheads would do well to grab a copy of this CD if they can find one.



Holy Soldier - Holy Soldier (1990) (Japanese Ed.)


Track Listing

01. Stranger (3:24)
02. See No Evil (5:28)
03. The Pain Inside Of Me (6:34)
04. Cry Out For Love (3:28)
05. Tear Down The Walls (3:58)
06. When The Reign Comes Down (5:17)
07. Lies (4:57)
08. Eyes Of Innocence (3:55)
09. Love Me (4:15)
10. We Are Young, We Are Strong (5:12)

Produced by David Zaffiro

The Band

• Andy Robbins: Bass
• Jamie Cramer: Guitars
• Steven Patrick: Lead Vocal
• Michael Cutting: Guitars
• Terry "The Animal" Russell: Drums

Holy Soldier - Holy Soldier (1990) (Japanese Ed.)


Exact Audio Copy V1.0 beta 3 from 29. August 2011

EAC extraction logfile from 3. March 2012, 11:06

Holy Soldier / Holy Soldier

Used drive : SlimtypeDVD A DS8A5SH Adapter: 0 ID: 1

Read mode : Secure
Utilize accurate stream : Yes
Defeat audio cache : Yes
Make use of C2 pointers : No

Read offset correction : 6
Overread into Lead-In and Lead-Out : No
Fill up missing offset samples with silence : Yes
Delete leading and trailing silent blocks : No
Null samples used in CRC calculations : Yes
Used interface : Native Win32 interface for Win NT & 2000

Used output format : User Defined Encoder
Selected bitrate : 320 kBit/s
Quality : High
Add ID3 tag : No
Command line compressor : C:\Program Files (x86)\Exact Audio Copy\Flac\flac.exe
Additional command line options : -V -8 -T "Date=%year%" -T "Genre=%genre%" %source%


TOC of the extracted CD

Track | Start | Length | Start sector | End sector
––––––––––––––––––––––––––––-
1 | 0:00.00 | 3:24.40 | 0 | 15339
2 | 3:24.40 | 5:28.20 | 15340 | 39959
3 | 8:52.60 | 6:34.42 | 39960 | 69551
4 | 15:27.27 | 3:28.43 | 69552 | 85194
5 | 18:55.70 | 3:58.00 | 85195 | 103044
6 | 22:53.70 | 5:17.05 | 103045 | 126824
7 | 28:11.00 | 4:57.30 | 126825 | 149129
8 | 33:08.30 | 3:55.02 | 149130 | 166756
9 | 37:03.32 | 4:15.00 | 166757 | 185881
10 | 41:18.32 | 5:12.15 | 185882 | 209296


Range status and errors

Selected range

Filename D:\My Music\Holy Soldier - 1990 Holy Soldier\Holy Soldier - Holy Soldier.wav

Peak level 97.7 %
Extraction speed 1.7 X
Range quality 100.0 %
Test CRC E1CD8A53
Copy CRC E1CD8A53
Copy OK

No errors occurred


AccurateRip summary

Track 1 not present in database
Track 2 not present in database
Track 3 not present in database
Track 4 not present in database
Track 5 not present in database
Track 6 not present in database
Track 7 not present in database
Track 8 not present in database
Track 9 not present in database
Track 10 not present in database

None of the tracks are present in the AccurateRip database

End of status report

==== Log checksum EB26510AEB2C3ABBA0013E5DD33510ABF90D35724B8BF71D42437DA37951D460 ====


Many thanks to the original uploader: kolushew

See also:
* Holy Soldier 1992 Last Train [Japanese Ed.]

* Stryper 1984 The Yellow And Black Attack [Japan 1st Press]
* Stryper 1985 Soldiers Under Command [Japan 1st Press]
* Stryper 1986 To Hell With The Devil [Japan 1st Press]
* Stryper 2015 Fallen [Japanese Ed.]