Subcategories

Holy Soldier - Last Train (1992) (Japanese Ed.)

Posted By: Andi_Deris
Holy Soldier - Last Train (1992) (Japanese Ed.)

Holy Soldier - Last Train (1992) (Japanese Ed.)
EAC Rip | FLAC: Image+Cue+Log | 327 Mb | MP3 CBR 320 kbps | 127 Mb | Scans | Time: 38:19
Genre: Hard Rock, Melodic Metal, CCM | Label: Pony Canyon | Cat.№: PCCY-00358

Holy Soldier's second disc stays within the boundaries of melodic metal, but is much mellower and a bit blusier than their debut. Vocalist Steven Patrick has a great voice and really makes the band. 'Gimme Shelter' an excellent Rolling Stones song, is capably redone on this disc. This album. like the debut, was also produced by ex-Bloodgood guitarist David Zaffiro. Their record company was their only reason for not becoming as big as bands like Stryper or Skid Row, because this album simply has everything that a good commercial metal album should have.



Holy Soldier - Last Train (1992) (Japanese Ed.)


Track Listing

01. Virtue & Vice (4:20)
02. Crazy (4:42)
03. Hallow's Eve (4:18)
04. Gimme Shelter (4:16)
05. Love Is On The Way (4:48)
06. Dead End Drive (3:41)
07. Tuesday Mourning (4:14)
08. Fairweather Friend (3:27)
09. Last Train (4:33)

Produced by David "Zippy" Zaffiro

The Band

• Steven Patrick: Vocals
• Jamie Cramer: Guitars
• Scott Soderstrom: Guitars
• Andy Robbins: Bass
• Terry "The Animal" Russell: Drums

Holy Soldier - Last Train (1992) (Japanese Ed.)


Exact Audio Copy V1.0 beta 3 from 29. August 2011

EAC extraction logfile from 4. May 2012, 20:17

Holy Soldier / Last Train

Used drive : SlimtypeDVD A DS8A5SH Adapter: 0 ID: 1

Read mode : Secure
Utilize accurate stream : Yes
Defeat audio cache : Yes
Make use of C2 pointers : No

Read offset correction : 6
Overread into Lead-In and Lead-Out : No
Fill up missing offset samples with silence : Yes
Delete leading and trailing silent blocks : No
Null samples used in CRC calculations : Yes
Used interface : Native Win32 interface for Win NT & 2000

Used output format : User Defined Encoder
Selected bitrate : 320 kBit/s
Quality : High
Add ID3 tag : No
Command line compressor : C:\Program Files (x86)\Exact Audio Copy\Flac\flac.exe
Additional command line options : -V -8 -T "Date=%year%" -T "Genre=%genre%" %source%

TOC of the extracted CD

Track | Start | Length | Start sector | End sector
––––––––––––––––––––––––––––-
1 | 0:00.00 | 4:20.57 | 0 | 19556
2 | 4:20.57 | 4:42.55 | 19557 | 40761
3 | 9:03.37 | 4:18.15 | 40762 | 60126
4 | 13:21.52 | 4:16.65 | 60127 | 79391
5 | 17:38.42 | 4:48.13 | 79392 | 101004
6 | 22:26.55 | 3:41.37 | 101005 | 117616
7 | 26:08.17 | 4:14.70 | 117617 | 136736
8 | 30:23.12 | 3:27.05 | 136737 | 152266
9 | 33:50.17 | 4:33.50 | 152267 | 172791

Range status and errors

Selected range

Filename D:\My Music\Holy Soldier - 1992 Last Train\Holy Soldier - Last Train.wav

Peak level 94.6 %
Extraction speed 4.0 X
Range quality 100.0 %
Test CRC 36DE33EE
Copy CRC 36DE33EE
Copy OK

No errors occurred

AccurateRip summary

Track 1 accurately ripped (confidence 1) [4E548231] (AR v1)
Track 2 accurately ripped (confidence 1) [9901804F] (AR v1)
Track 3 accurately ripped (confidence 1) [D6360214] (AR v1)
Track 4 accurately ripped (confidence 1) [8664A43E] (AR v1)
Track 5 accurately ripped (confidence 1) [D4C4B43D] (AR v1)
Track 6 accurately ripped (confidence 1) [2D2EFB42] (AR v1)
Track 7 accurately ripped (confidence 1) [A5286D02] (AR v1)
Track 8 accurately ripped (confidence 1) [0C0DEA91] (AR v1)
Track 9 cannot be verified as accurate (confidence 1) [0D65D834], AccurateRip returned [6BE9C0B0] (AR v2)

8 трек(и) скопированы точно
1 трек(и) не удалось проверить на точность

Some tracks could not be verified as accurate

End of status report

==== Log checksum 9B586A24205948C8A83ABAB5BB52ACB73D76314565CDA1AA735FBD5BE8AA7D74 ====


Many thanks to the original uploader: kolushew

See also:
* Holy Soldier 1990 Holy Soldier [Japanese Ed.]

* Stryper 1984 The Yellow And Black Attack [Japan 1st Press]
* Stryper 1985 Soldiers Under Command [Japan 1st Press]
* Stryper 1986 To Hell With The Devil [Japan 1st Press]
* Stryper 2015 Fallen [Japanese Ed.]