Tags
Language
Tags
February 2023
Su Mo Tu We Th Fr Sa
29 30 31 1 2 3 4
5 6 7 8 9 10 11
12 13 14 15 16 17 18
19 20 21 22 23 24 25
26 27 28 1 2 3 4

Horace Silver - Jazz Has A Sense Of Humor (1999) {Verve}

Posted By: tiburon
Horace Silver - Jazz Has A Sense Of Humor (1999) {Verve}

Horace Silver - Jazz Has A Sense Of Humor (1999) {Verve}
EAC 0.99pb5 | FLAC tracks level 6 | Cue+Log+M3U | Full Scans 400dpi | 326MB + 5% Recovery
MP3 CBR 320 Kbps | 109MB + 5% Recovery
Genre: Post-Bop, Hard Bop
Horace Silver - Jazz Has A Sense Of Humor (1999) {Verve}

In this set of nine originals, the Horace Silver touch is clearly evident: happy, strong melodies; groovin' beats; Silver's deft, deliberate, bluesy piano comping and boppin' leads; and the joyful playing of saxophonist Jimmy Greene and trumpeter Ryan Kisor, which seems to be more intense in the context of Silver's unmistakable compositions. The CD's title is in reference to the album's content (and that the listener has to go along with Silver's adoration in a nonsexist way toward women). Some might be offended by the title "I Love Annie's Fanny," but it's just the name of a bouncy, mainstream jazz ditty that Silver is so well known for writing. There are some clichés that pop up in old Silver numbers that he seems to have rewritten. Phrases of "Cape Verdean Blues" creep into the urgent first movement of "The Mama Suite," and his typical groove waltz is extant in the opener "Satisfaction Guaranteed" and the closer "Where Do I Go From Here?" But his tunefully familiar, head-noddin' original funk is a vital as ever, and sounds pretty fresh compared to some of the trite neo-bop being reprocessed this past decade. Silver's light, spare, soulful style – particularly when he uses his left hand in tandem with John Webber's bass – is a sound for sore ears, one that has a universal, timeless appeal, crossing generational and commercial barriers. This is well-played music, a specialty Silver has envisioned and realized through the bulk of his career. Highly recommended.
Track List
01. Satisfaction Guaranteed (5:49)
02. The Mama Suite Part I: Not Enough Mama (5:36)
03. The Mama Suite Part II: Too Much Mama (4:52)
04. The Mama Suite Part III: Just Right Mama (4:08)
05. Philley Millie (4:45)
06. Ah-Ma-Tell (6:00)
07. I Love Annie's Fanny (4:48)
08. Gloria (7:34)
09. Where Do I Go From Here? (4:01)

musicians
Horace Silver - piano
Ryan Kisor - trumpet
Jimmy Greene - soprano sax, tenor sax
John Webber - bass
Willie Jones III - drums

Produced by Horace Silver


Exact Audio Copy V0.99 prebeta 5 from 4. May 2009

EAC extraction logfile from 9. January 2010, 20:51

Horace Silver / Jazz Has a Sense of Humor

Used drive : ASUS CRW-5232AS Adapter: 0 ID: 0

Read mode : Secure
Utilize accurate stream : Yes
Defeat audio cache : Yes
Make use of C2 pointers : No

Read offset correction : 6
Overread into Lead-In and Lead-Out : No
Fill up missing offset samples with silence : Yes
Delete leading and trailing silent blocks : No
Null samples used in CRC calculations : Yes
Used interface : Native Win32 interface for Win NT & 2000
Gap handling : Appended to previous track

Used output format : User Defined Encoder
Selected bitrate : 1024 kBit/s
Quality : High
Add ID3 tag : No
Command line compressor : C:\Program Files\Exact Audio Copy\FLAC\FLAC.EXE
Additional command line options : -6 -V -T "ARTIST=%a" -T "TITLE=%t" -T "ALBUM=%g" -T "DATE=%y" -T "TRACKNUMBER=%n" -T "GENRE=%m" -T "COMMENT=%e" %s -o %d


TOC of the extracted CD

Track | Start | Length | Start sector | End sector
––––––––––––––––––––––––––––-
1 | 0:00.00 | 5:48.50 | 0 | 26149
2 | 5:48.50 | 5:36.10 | 26150 | 51359
3 | 11:24.60 | 4:51.62 | 51360 | 73246
4 | 16:16.47 | 4:07.38 | 73247 | 91809
5 | 20:24.10 | 4:45.27 | 91810 | 113211
6 | 25:09.37 | 6:00.15 | 113212 | 140226
7 | 31:09.52 | 4:48.08 | 140227 | 161834
8 | 35:57.60 | 7:34.20 | 161835 | 195904
9 | 43:32.05 | 4:01.20 | 195905 | 213999


Track 1

Filename G:\Horace Silver - Jazz Has a Sense of Humor\01. Satisfaction Guaranteed.wav

Pre-gap length 0:00:02.00

Peak level 100.0 %
Track quality 99.9 %
Test CRC C01490BB
Copy CRC C01490BB
Accurately ripped (confidence 3) [1D8743ED]
Copy OK

Track 2

Filename G:\Horace Silver - Jazz Has a Sense of Humor\02. The Mama Suite Part I- Not Enough Mama.wav

Peak level 100.0 %
Track quality 100.0 %
Test CRC 0FF09408
Copy CRC 0FF09408
Accurately ripped (confidence 3) [42334703]
Copy OK

Track 3

Filename G:\Horace Silver - Jazz Has a Sense of Humor\03. The Mama Suite Part II- Too Much Mama.wav

Peak level 100.0 %
Track quality 100.0 %
Test CRC 0D7F6E07
Copy CRC 0D7F6E07
Accurately ripped (confidence 3) [C5005765]
Copy OK

Track 4

Filename G:\Horace Silver - Jazz Has a Sense of Humor\04. The Mama Suite Part III- Just Right Mama.wav

Peak level 100.0 %
Track quality 100.0 %
Test CRC 5A833BFC
Copy CRC 5A833BFC
Accurately ripped (confidence 3) [245103E8]
Copy OK

Track 5

Filename G:\Horace Silver - Jazz Has a Sense of Humor\05. Philley Millie.wav

Peak level 100.0 %
Track quality 100.0 %
Test CRC 114835FE
Copy CRC 114835FE
Accurately ripped (confidence 3) [8C8F098D]
Copy OK

Track 6

Filename G:\Horace Silver - Jazz Has a Sense of Humor\06. Ah-Ma-Tell.wav

Pre-gap length 0:00:00.12

Peak level 100.0 %
Track quality 100.0 %
Test CRC 8059601F
Copy CRC 8059601F
Accurately ripped (confidence 3) [22E9FFB5]
Copy OK

Track 7

Filename G:\Horace Silver - Jazz Has a Sense of Humor\07. I Love Annie's Fanny.wav

Peak level 100.0 %
Track quality 100.0 %
Test CRC 783C0110
Copy CRC 783C0110
Accurately ripped (confidence 3) [73B11170]
Copy OK

Track 8

Filename G:\Horace Silver - Jazz Has a Sense of Humor\08. Gloria.wav

Peak level 100.0 %
Track quality 99.9 %
Test CRC 17163390
Copy CRC 17163390
Accurately ripped (confidence 3) [F95A89D1]
Copy OK

Track 9

Filename G:\Horace Silver - Jazz Has a Sense of Humor\09. Where Do I Go From Here .wav

Peak level 100.0 %
Track quality 100.0 %
Test CRC 5AAEE4D9
Copy CRC 5AAEE4D9
Accurately ripped (confidence 3) [2E22F649]
Copy OK


All tracks accurately ripped

No errors occurred

End of status report

Horace Silver - Jazz Has A Sense Of Humor (1999) {Verve}
Horace Silver - Jazz Has A Sense Of Humor (1999) {Verve}


Thanks to the original ripper