Subcategories

Horace Silver - The Cape Verdean Blues (1965) [XRCD24, Reissue 2010]

Posted By: gribovar
Horace Silver - The Cape Verdean Blues (1965) [XRCD24, Reissue 2010]

Horace Silver - The Cape Verdean Blues (1965) [XRCD24, Reissue 2010]
XLD Rip | FLAC (tracks+.cue+log) - 251 MB | MP3 CBR 320 kbps (LAME 3.93) - 104 MB | Covers - 45 MB
Genre: Jazz | RAR 3% Rec. | Label: Audio Wave/Blue Note (AWMXR-0010)

After the success of Song for My Father and its hit title cut, Horace Silver was moved to pay further tribute to his dad, not to mention connect with some of his roots. Silver's father was born in the island nation of Cape Verde (near West Africa) before emigrating to the United States, and that's the inspiration behind The Cape Verdean Blues. Not all of the tracks are directly influenced by the music of Cape Verde (though some do incorporate Silver's taste for light exoticism); however, there's a spirit of adventure that pervades the entire album, a sense of exploration that wouldn't have been quite the same with Silver's quintet of old. On average, the tracks are longer than usual, and the lineup - featuring tenor saxophonist Joe Henderson (a holdover from the Song for My Father sessions) and trumpeter Woody Shaw - is one of the most modernist-leaning Silver ever recorded with. They push Silver into more advanced territory than he was normally accustomed to working, with mild dissonances and (especially in Henderson's case) a rawer edge to the playing. What's more, bop trombone legend J.J. Johnson appears on half of the six tracks, and Silver sounds excited to finally work with a collaborator he'd been pursuing for some time. Johnson ably handles some of the album's most challenging material, like the moody, swelling "Bonita" and the complex, up-tempo rhythms of "Nutville." Most interesting, though, is the lilting title track, which conjures the flavor of the islands with a blend of Latin-tinged rhythms and calypso melodies that nonetheless don't sound quite Caribbean in origin. Also noteworthy are "The African Queen," with its blend of emotional power and drifting hints of freedom, and "Pretty Eyes," Silver's first original waltz. Yet another worthwhile Silver album.
Tracklist:
01. The Cape Verdean Blues
02. The African Queen
03. Pretty Eyes
04. Nutville
05. Bonita
06. Mo' Joe

Total time: 43:58

X Lossless Decoder version 20101107 (124.1)

XLD extraction logfile from 2010-12-20 13:19:23 -0600

Horace Silver / The Cape Verdean Blues

Used drive : OPTIARC DVD RW AD-5680H (revision 3AHB)

Use cdparanoia mode : YES (CDParanoia III 10.2 engine)
Disable audio cache : OK for the drive with cache less than 2750KB
Make use of C2 pointers : NO
Read offset correction : 48
Max retry count : 100
Gap status : Analyzed, Appended

TOC of the extracted CD
Track | Start | Length | Start sector | End sector
––––––––––––––––––––––––––––-
1 | 00:00:00 | 05:01:70 | 0 | 22644
2 | 05:01:70 | 09:39:40 | 22645 | 66109
3 | 14:41:35 | 07:34:62 | 66110 | 100221
4 | 22:16:22 | 07:17:15 | 100222 | 133011
5 | 29:33:37 | 08:40:35 | 133012 | 172046
6 | 38:13:72 | 05:44:25 | 172047 | 197871

All Tracks
Album gain : -1.99 dB
Peak : 1.000000

Track 01
Filename : /01 - The Cape Verdean Blues.flac
Pre-gap length : 00:02:00

Track gain : -0.77 dB
Peak : 0.944305
CRC32 hash (test run) : E5CDF438
CRC32 hash : E5CDF438
CRC32 hash (skip zero) : 874D0FE4
AccurateRip signature : 6E441EA7
->Track not present in AccurateRip database.
Statistics
Read error : 0
Skipped (treated as error) : 0
Edge jitter error (maybe fixed) : 0
Atom jitter error (maybe fixed) : 0
Drift error (maybe fixed) : 0
Dropped bytes error (maybe fixed) : 0
Duplicated bytes error (maybe fixed) : 0
Inconsistency in error sectors : 0

Track 02
Filename : /02 - The African Queen.flac
Pre-gap length : 00:04:52

Track gain : -1.80 dB
Peak : 1.000000
CRC32 hash (test run) : FE4EC212
CRC32 hash : FE4EC212
CRC32 hash (skip zero) : 0FF2C5F0
AccurateRip signature : 723B39F3
->Track not present in AccurateRip database.
Statistics
Read error : 0
Skipped (treated as error) : 0
Edge jitter error (maybe fixed) : 0
Atom jitter error (maybe fixed) : 0
Drift error (maybe fixed) : 0
Dropped bytes error (maybe fixed) : 0
Duplicated bytes error (maybe fixed) : 0
Inconsistency in error sectors : 0

Track 03
Filename : /03 - Pretty Eyes.flac
Pre-gap length : 00:04:39

Track gain : -1.33 dB
Peak : 0.999969
CRC32 hash (test run) : 289920C9
CRC32 hash : 289920C9
CRC32 hash (skip zero) : 4222FE36
AccurateRip signature : 9914EF0F
->Track not present in AccurateRip database.
Statistics
Read error : 0
Skipped (treated as error) : 0
Edge jitter error (maybe fixed) : 0
Atom jitter error (maybe fixed) : 0
Drift error (maybe fixed) : 0
Dropped bytes error (maybe fixed) : 0
Duplicated bytes error (maybe fixed) : 0
Inconsistency in error sectors : 0

Track 04
Filename : /04 - Nutville.flac
Pre-gap length : 00:05:11

Track gain : -0.85 dB
Peak : 0.871399
CRC32 hash (test run) : 04016A23
CRC32 hash : 04016A23
CRC32 hash (skip zero) : 33E82A66
AccurateRip signature : 020B2DE4
->Track not present in AccurateRip database.
Statistics
Read error : 0
Skipped (treated as error) : 0
Edge jitter error (maybe fixed) : 0
Atom jitter error (maybe fixed) : 0
Drift error (maybe fixed) : 0
Dropped bytes error (maybe fixed) : 0
Duplicated bytes error (maybe fixed) : 0
Inconsistency in error sectors : 0

Track 05
Filename : /05 - Bonita.flac
Pre-gap length : 00:03:69

Track gain : -2.33 dB
Peak : 0.961700
CRC32 hash (test run) : 667335A1
CRC32 hash : 667335A1
CRC32 hash (skip zero) : 7A6B6962
AccurateRip signature : 43B05679
->Track not present in AccurateRip database.
Statistics
Read error : 0
Skipped (treated as error) : 0
Edge jitter error (maybe fixed) : 0
Atom jitter error (maybe fixed) : 0
Drift error (maybe fixed) : 0
Dropped bytes error (maybe fixed) : 0
Duplicated bytes error (maybe fixed) : 0
Inconsistency in error sectors : 0

Track 06
Filename : /06 - Mo' Joe.flac
Pre-gap length : 00:04:44

Track gain : -3.40 dB
Peak : 1.000000
CRC32 hash (test run) : 068DFAA6
CRC32 hash : 068DFAA6
CRC32 hash (skip zero) : 743CCA11
AccurateRip signature : C972F718
->Track not present in AccurateRip database.
Statistics
Read error : 0
Skipped (treated as error) : 0
Edge jitter error (maybe fixed) : 0
Atom jitter error (maybe fixed) : 0
Drift error (maybe fixed) : 0
Dropped bytes error (maybe fixed) : 0
Duplicated bytes error (maybe fixed) : 0
Inconsistency in error sectors : 0

No errors occurred

End of status report

[CUETools log; Date: 12.04.2019 14:01:34; Version: 2.1.4]
[CTDB TOCID: L3WN61Exh.uWyQpyPeQaNmJCSk8-] found.
Track | CTDB Status
1 | (23/23) Accurately ripped
2 | (23/23) Accurately ripped
3 | (23/23) Accurately ripped
4 | (23/23) Accurately ripped
5 | (23/23) Accurately ripped
6 | (23/23) Accurately ripped
[AccurateRip ID: 000a8ec4-0038de6b-500a4e06] found.
Track [ CRC | V2 ] Status
01 [6e441ea7|fc2aa087] (07+27/34) Accurately ripped
02 [723b39f3|df57a080] (07+27/34) Accurately ripped
03 [9914ef0f|80afee9c] (07+27/34) Accurately ripped
04 [020b2de4|938a2182] (07+27/34) Accurately ripped
05 [43b05679|e6450888] (07+27/34) Accurately ripped
06 [c972f718|6ce72721] (07+27/34) Accurately ripped

Track Peak [ CRC32 ] [W/O NULL]
– 100,0 [413E2902] [CC7A9389]
01 94,4 [E5CDF438] [874D0FE4]
02 100,0 [FE4EC212] [0FF2C5F0]
03 100,0 [289920C9] [4222FE36]
04 87,1 [04016A23] [33E82A66]
05 96,1 [667335A1] [7A6B6962]
06 100,0 [068DFAA6] [743CCA11]

Thanks to the original releaser

See also:
Horace Silver - Horace Silver And The Jazz Messengers (1956) [Reissue 2005]
Horace Silver - Further Explorations By The Horace Silver Quintet (1958) [Reissue 2008]
The Horace Silver Quintet - Finger Poppin' (1959) [Reissue 2003]
The Horace Silver Quintet - Song For My Father (1965) [Reissue 1999]
The Horace Silver Quintet Plus J.J.Johnson - The Cape Verdean Blues (1965)