Tags
Language
Tags

Houston Person & Ron Carter - Chemistry (2016) {Highnote}

Posted By: tiburon
Houston Person & Ron Carter - Chemistry (2016) {Highnote}

Houston Person & Ron Carter - Chemistry (2016) {Highnote}
EAC 1.1 | FLAC tracks level 8 | Cue+Log+M3U | Full Scans 300dpi | 227MB + 5% Recovery
MP3 CBR 320 Kbps | 121MB + 5% Recovery
Genre: Post-Bop

Saxophonist Houston Person and bassist Ron Carter have a duo partnership that goes back at least as far as their two 1990 recordings, Something in Common and Now's the Time! Since those albums, the legendary artists have released several more duo collaborations, each one a thoughtful and minimalist production showcasing their masterful command of jazz standards, blues, and bop. The duo's 2016 effort, the aptly titled Chemistry, is no exception and once again finds Person and Carter communing over a well-curated set of jazz standards. As on their previous albums, Chemistry is a deceptively simple conceit; just two jazz journeymen playing conversational duets on well-known jazz songs.
Track List
01. Bye Bye Blackbird 4:19
02. But Beautiful 6:08
03. Young and Foolish 4:10
04. Fools Rush In 7:10
05. Can't We Be Friends? 4:14
06. Blame It on My Youth 6:16
07. I Did Not Know What Time It Was 4:43
08. I Can't Get Started 4:21
09. Blue Monk 3:30
10. When I Fall in Love 4:39

musicians
Houston Person - saxophone
Ron Carter - double bass

Produced by Houston Person


Exact Audio Copy V1.1 from 23. June 2015

EAC extraction logfile from 18. July 2016, 18:49

Houston Person & Ron Carter / Chemistry

Used drive : HL-DT-STDVD-RAM GH22NS30 Adapter: 2 ID: 0

Read mode : Secure
Utilize accurate stream : Yes
Defeat audio cache : Yes
Make use of C2 pointers : No

Read offset correction : 102
Overread into Lead-In and Lead-Out : Yes
Fill up missing offset samples with silence : Yes
Delete leading and trailing silent blocks : No
Null samples used in CRC calculations : Yes
Used interface : Installed external ASPI interface
Gap handling : Appended to previous track

Used output format : User Defined Encoder
Selected bitrate : 128 kBit/s
Quality : High
Add ID3 tag : No
Command line compressor : G:\Program Files\Exact Audio Copy\Encoder\flac.exe
Additional command line options : -V -8 -T "Genre=%genre%" -T "Artist=%artist%" -T "Title=%title%" -T "Album=%albumtitle%" -T "Date=%year%" -T "Tracknumber=%tracknr%" -T "Comment=EAC1.1 FLAC -8" %source%


TOC of the extracted CD

Track | Start | Length | Start sector | End sector
––––––––––––––––––––––––––––-
1 | 0:00.00 | 4:19.19 | 0 | 19443
2 | 4:19.19 | 6:08.27 | 19444 | 47070
3 | 10:27.46 | 4:09.74 | 47071 | 65819
4 | 14:37.45 | 7:09.59 | 65820 | 98053
5 | 21:47.29 | 4:13.43 | 98054 | 117071
6 | 26:00.72 | 6:16.04 | 117072 | 145275
7 | 32:17.01 | 4:42.67 | 145276 | 166492
8 | 36:59.68 | 4:21.23 | 166493 | 186090
9 | 41:21.16 | 3:30.23 | 186091 | 201863
10 | 44:51.39 | 4:38.51 | 201864 | 222764


Track 1

Filename F:\WAV\01 - Bye Bye Blackbird.wav

Pre-gap length 0:00:02.00

Peak level 97.9 %
Extraction speed 4.8 X
Track quality 100.0 %
Test CRC 403ECA92
Copy CRC 403ECA92
Track not present in AccurateRip database
Copy OK

Track 2

Filename F:\WAV\02 - But Beautiful.wav

Pre-gap length 0:00:01.15

Peak level 97.9 %
Extraction speed 5.6 X
Track quality 100.0 %
Test CRC 492BC265
Copy CRC 492BC265
Track not present in AccurateRip database
Copy OK

Track 3

Filename F:\WAV\03 - Young and Foolish.wav

Pre-gap length 0:00:02.64

Peak level 97.9 %
Extraction speed 5.2 X
Track quality 99.9 %
Test CRC 7219A4F8
Copy CRC 7219A4F8
Track not present in AccurateRip database
Copy OK

Track 4

Filename F:\WAV\04 - Fools Rush In.wav

Pre-gap length 0:00:01.32

Peak level 97.9 %
Extraction speed 6.7 X
Track quality 100.0 %
Test CRC 4AB317FA
Copy CRC 4AB317FA
Track not present in AccurateRip database
Copy OK

Track 5

Filename F:\WAV\05 - Can't We Be Friends.wav

Pre-gap length 0:00:00.22

Peak level 97.9 %
Extraction speed 6.7 X
Track quality 100.0 %
Test CRC 38E43FD9
Copy CRC 38E43FD9
Track not present in AccurateRip database
Copy OK

Track 6

Filename F:\WAV\06 - Blame It on My Youth.wav

Pre-gap length 0:00:04.49

Peak level 97.9 %
Extraction speed 7.4 X
Track quality 100.0 %
Test CRC C6853E07
Copy CRC C6853E07
Track not present in AccurateRip database
Copy OK

Track 7

Filename F:\WAV\07 - I Did Not Know What Time It Was.wav

Pre-gap length 0:00:03.10

Peak level 97.9 %
Extraction speed 7.4 X
Track quality 100.0 %
Test CRC 2A7777C6
Copy CRC 2A7777C6
Track not present in AccurateRip database
Copy OK

Track 8

Filename F:\WAV\08 - I Can't Get Started.wav

Pre-gap length 0:00:01.49

Peak level 97.9 %
Extraction speed 7.5 X
Track quality 100.0 %
Test CRC 9270BC0D
Copy CRC 9270BC0D
Track not present in AccurateRip database
Copy OK

Track 9

Filename F:\WAV\09 - Blue Monk.wav

Pre-gap length 0:00:03.44

Peak level 97.9 %
Extraction speed 7.5 X
Track quality 100.0 %
Test CRC F4299016
Copy CRC F4299016
Track not present in AccurateRip database
Copy OK

Track 10

Filename F:\WAV\10 - When I Fall in Love.wav

Pre-gap length 0:00:02.57

Peak level 97.9 %
Extraction speed 5.9 X
Track quality 100.0 %
Test CRC 01D3A65B
Copy CRC 01D3A65B
Track not present in AccurateRip database
Copy OK


None of the tracks are present in the AccurateRip database

No errors occurred

End of status report

==== Log checksum F0C44C6267537DDE660DFED917BA5AD10D04A5BCE256EFF53B1BB6E83C166A6E ====



––––––––––––––––––––––––––––––––––––––––
Analyzed: Houston Person & Ron Carter / Chemistry
––––––––––––––––––––––––––––––––––––––––

DR Peak RMS Duration Track
––––––––––––––––––––––––––––––––––––––––
DR12 -0.18 dB -13.98 dB 4:19 01-Bye Bye Blackbird
DR13 -0.18 dB -15.72 dB 6:08 02-But Beautiful
DR12 -0.18 dB -13.63 dB 4:10 03-Young and Foolish
DR12 -0.18 dB -15.02 dB 7:10 04-Fools Rush In
DR12 -0.18 dB -14.18 dB 4:14 05-Can't We Be Friends?
DR12 -0.18 dB -14.83 dB 6:16 06-Blame It on My Youth
DR10 -0.18 dB -12.49 dB 4:43 07-I Did Not Know What Time It Was
DR12 -0.18 dB -14.71 dB 4:21 08-I Can't Get Started
DR12 -0.18 dB -13.80 dB 3:30 09-Blue Monk
DR11 -0.18 dB -13.94 dB 4:39 10-When I Fall in Love
––––––––––––––––––––––––––––––––––––––––

Number of tracks: 10
Official DR value: DR12

Samplerate: 44100 Hz
Channels: 2
Bits per sample: 16
Bitrate: 602 kbps
Codec: FLAC
================================================================================

Houston Person & Ron Carter - Chemistry (2016) {Highnote}
Houston Person & Ron Carter - Chemistry (2016) {Highnote}
Houston Person & Ron Carter - Chemistry (2016) {Highnote}


Thanks to the original ripper