Subcategories

Howlin' Wolf - Smokestack Lightning (1964) [1990]

Posted By: mfrwiz
Howlin' Wolf - Smokestack Lightning (1964) [1990]

Howlin' Wolf - Smokestack Lightning (1964) [1990]
Loseless (Flac Image File + Cue + Log + Audiochecker Log): 442 Mb | EAC Secure Mode Rip | Mp3 (CBR 320 kbps): 176 Mb | Covers
Original Release Year: 1964 - Audio CD Release Year: 1990 - Label: Instant - Catalog: CD INS 5037
Blues, Chicago Blues

Product Description: This was based on Wolf's "Crying at Daybreak," recorded years earlier and itself modeled on Charley Patton's "Moon Going Down." The inspiration, said Wolf, was watching trains cut through the night: "We used to sit out in the country and see the trains go by, watch the sparks come out of the smokestack. That was smokestack lightning."

Review: This is wicked from 1964 with tracks including Shake It For Me, Dust My Broom, I Didn't Mean To Hurt Your Feelings,FortyFour.
Wolf was probably the most energetic performer of the blues greats. His influence extends to the punk rock and grunge movements of latter generations such was the ferocious power of his playing and singing.

Wolf was at his prime during this period as his music was being recognised by the R & B movement and he performed and recorded with the Stones and Clapton etc. His music begins to anticipate the blues rock of the seventies while being firmly rooted in his own primitive rhythmic style.
Howlin' Wolf - Smokestack Lightning (1964) [1990]

Track listing
01 - Moanin' At Midnight
02 - How Many More Years
03 - All Night Boogie (All Night Long)
04 - No Place To Go
05 - Baby How Long
06 - Evil (Is Going On)
07 - Forty Four
08 - Smokestack Lightning
09 - I Asked For Water (She Gave Me Gasoline)
10 - The Natchez Burning
11 - Goin' Back Home
12 - Bluebird
13 - My Life
14 - You Ought To Know
15 - Who's Been Talking
16 - Nature
17 - Walk To Camp Hall
18 - My Baby Told Me
19 - Sittin' On Top Of The World
20 - Howlin' For My Baby
21 - Wang-Dong-Doodle
22 - Back Door Man
23 - Spoonful
24 - Down In The Bottom
25 - Shake For Me
26 - The Red Rooster
27 - You'll Be Mine
28 - Goin' Down SlowHave a nice day.

Exact Audio Copy V0.99 prebeta 5 from 4. May 2009

EAC extraction logfile from 11. June 2009, 13:26

Howlin' Wolf / Smokestack Lightening

Used drive : Pioneer BDR-203BK Adapter: 7 ID: 0

Read mode : Secure
Utilize accurate stream : Yes
Defeat audio cache : Yes
Make use of C2 pointers : No

Read offset correction : 6
Overread into Lead-In and Lead-Out : No
Fill up missing offset samples with silence : Yes
Delete leading and trailing silent blocks : No
Null samples used in CRC calculations : Yes
Used interface : Native Win32 interface for Win NT & 2000

Used output format : User Defined Encoder
Selected bitrate : 128 kBit/s
Quality : High
Add ID3 tag : No
Command line compressor : C:\Programmi\FLAC\flac.exe
Additional command line options : -5 -V -T "ARTIST=%a" -T "TITLE=%t" -T "ALBUM=%g" -T "DATE=%y" -T "TRACKNUMBER=%n" -T "GENRE=%m" -T "COMMENT=EAC Flac 1.2.1b -5" %s


TOC of the extracted CD

Track | Start | Length | Start sector | End sector
––––––––––––––––––––––––––––-
1 | 0:00.00 | 3:00.10 | 0 | 13509
2 | 3:00.10 | 2:45.57 | 13510 | 25941
3 | 5:45.67 | 2:18.68 | 25942 | 36359
4 | 8:04.60 | 2:56.02 | 36360 | 49561
5 | 11:00.62 | 2:56.40 | 49562 | 62801
6 | 13:57.27 | 2:55.55 | 62802 | 75981
7 | 16:53.07 | 2:51.60 | 75982 | 88866
8 | 19:44.67 | 3:08.38 | 88867 | 103004
9 | 22:53.30 | 2:54.70 | 103005 | 116124
10 | 25:48.25 | 2:13.52 | 116125 | 126151
11 | 28:02.02 | 2:43.33 | 126152 | 138409
12 | 30:45.35 | 3:34.72 | 138410 | 154531
13 | 34:20.32 | 3:06.05 | 154532 | 168486
14 | 37:26.37 | 3:22.58 | 168487 | 183694
15 | 40:49.20 | 2:23.32 | 183695 | 194451
16 | 43:12.52 | 2:58.28 | 194452 | 207829
17 | 46:11.05 | 2:53.52 | 207830 | 220856
18 | 49:04.57 | 2:43.48 | 220857 | 233129
19 | 51:48.30 | 2:33.22 | 233130 | 244626
20 | 54:21.52 | 2:35.65 | 244627 | 256316
21 | 56:57.42 | 2:26.13 | 256317 | 267279
22 | 59:23.55 | 2:50.35 | 267280 | 280064
23 | 62:14.15 | 2:44.40 | 280065 | 292404
24 | 64:58.55 | 2:12.05 | 292405 | 302309
25 | 67:10.60 | 2:13.67 | 302310 | 312351
26 | 69:24.52 | 2:26.28 | 312352 | 323329
27 | 71:51.05 | 2:27.37 | 323330 | 334391
28 | 74:18.42 | 3:22.20 | 334392 | 349561


Range status and errors

Selected range

Filename E:\MP3\Blues\Howlin' Wolf\Howlin' Wolf - Smokestack Lightning\Nuova Cartella\Howlin' Wolf - Smokestack Lightening.wav

Peak level 100.0 %
Range quality 99.9 %
Copy CRC 333DFF92
Copy OK

No errors occurred

End of status report


AUDIOCHECKER v2.0 beta (build 457) - by Dester - opdester@freemail.hu
~~~~~~~~~~~~~~~~~~~~~~~~~~~~~~~~~~
-=== NON MODIFICARE QUESTO FILE! ===-

Percorso: …\Nuova Cartella

1 -=- Howlin' Wolf - Smokestack Lightening.flac -=- CDDA (100%)

81620388