Tags
Language
Tags

IRCAM, Ensemble intercontemporain, Susanna Mälkki - Bruno Mantovani: Le Sette Chiese, Streets, Eclair de Lune (2008) (Repost)

Posted By: tirexiss
IRCAM, Ensemble intercontemporain, Susanna Mälkki - Bruno Mantovani: Le Sette Chiese, Streets, Eclair de Lune (2008) (Repost)

IRCAM, Ensemble intercontemporain, Susanna Mälkki - Bruno Mantovani: Le Sette Chiese, Streets, Eclair de Lune (2008)
EAC | FLAC (image+.cue, log) | Covers Included | 76:09 | 304 MB
Genre: Classical | Label: Kairos | Catalog: 0012722KAI

Based in Paris, Ensemble Intercontemporain is one of the leading performance organizations devoted to new music, and is closely associated with composer/conductor Pierre Boulez, a leader of the European avant-garde establishment. Boulez developed the idea of the Ensemble during the planning stages for IRCAM (Institut de Recherche et de Coordination Acoustique/Musique). IRCAM was established by the French government as an international center for experimental music, to pursue the explorations that Boulez, Iannis Xenakis, Bruno Maderna, and Luciano Berio had been operating without government, broadcasting organization, or university assistance.
IRCAM was planned to have the latest in computer and electronic music technology, and to be located underneath the new Georges Pompidou Center in Paris. Boulez, whose public pronouncements concerning the present and future of music tend to be absolutist, concluded that the advances of the twentieth century called into question the nineteenth century institution of the symphony orchestra. He proposed establishng a more flexible structure designed to play new works, which are often variable in instrumentation. His suggestion, patterned on the recent success of the London Sinfonietta (founded in 1968 to play twentieth century music), was for an in-house ensemble. He decided on its size and instrumentation by referring to the works of Austrian composer Anton Webern. Accordingly, Boulez proposed a 31-member group containing all the instruments needed to perform the chamber works of Boulez, as well as important works by Igor Stravinsky, Webern, and Arnold Schoenberg.
In 1976, Michel Guy, the French Minister of Culture, approved the plan for the Ensemble Intercontemporain, and the organization was quickly formed. Boulez, who has been in charge of the Ensemble since its inception, invited 31 players to make up the Ensemble. The Ensemble uses an innovative staffing plan where members sign to long-term contracts, but they are required only two-thirds of the normal working time. The rest of the time remains at the musicians' discretion, affording them the opportunity to refresh themselves with different musical activities that busy members of standard full-time orchestras often don't have time for. Ensemble members often function as a soloists with the group. Smaller sub-groups of the Ensemble are often billed as "Soloists of Ensemble Intercontemporain."
Organizationally, Ensemble Intercontemporain is not a part of IRCAM, although it usually performs there and is widely regarded as an IRCAM's group. In the first twenty years of its existence, the Ensemble performed over 1,400 different works, including 200 world premieres, of which 115 were specifically commissioned for the group.
The Ensemble's emphasis is on new works, but it saves a place in its schedule for works considered "classics" of the twentieth century. The Ensemble has recorded frequently, including works by iconoclastic American composer Frank Zappa (1940-1993), in an album called The Perfect Stranger, although Zappa complained that it was under-rehearsed and inaccurate. Other composers the group has championed and performed include Tristan Murail, Bruno Mantovani, Michael Jarrell, Luca Francesconi, Philippe Manoury, Marc-Andre Dalbavie, and Unsuk Chin.

IRCAM, Ensemble intercontemporain, Susanna Mälkki - Bruno Mantovani: Le Sette Chiese, Streets, Eclair de Lune (2008) (Repost)

Track List:

Bruno Mantovani (*1974)

[1]-[9] Le Sette Chiese (2002)
[10] Streets (2007)
[11] Eclair de Lune (2006)

Performers:
IRCAM
Ensemble intercontemporain
Susanna Mälkki, conductor

Exact Audio Copy V1.3 from 2. September 2016

EAC extraction logfile from 22. September 2017, 21:27

IRCAM, Ensemble intercontemporain, Susanna Mälkki / Mantovani - La Sette Chiese; Streets; Eclair de Lune

Used drive : PLDS DVD-RW DU8A6SH Adapter: 1 ID: 0

Read mode : Secure
Utilize accurate stream : Yes
Defeat audio cache : Yes
Make use of C2 pointers : No

Read offset correction : 6
Overread into Lead-In and Lead-Out : No
Fill up missing offset samples with silence : Yes
Delete leading and trailing silent blocks : No
Null samples used in CRC calculations : Yes
Used interface : Native Win32 interface for Win NT & 2000

Used output format : User Defined Encoder
Selected bitrate : 128 kBit/s
Quality : High
Add ID3 tag : No
Command line compressor : C:\Program Files (x86)\Exact Audio Copy\Flac\flac.exe
Additional command line options : -V -8 -T "Date=%year%" -T "Genre=%genre%" %source%


TOC of the extracted CD

Track | Start | Length | Start sector | End sector
––––––––––––––––––––––––––––-
1 | 0:00.00 | 3:33.62 | 0 | 16036
2 | 3:33.62 | 4:44.17 | 16037 | 37353
3 | 8:18.04 | 3:11.45 | 37354 | 51723
4 | 11:29.49 | 9:24.14 | 51724 | 94037
5 | 20:53.63 | 3:58.53 | 94038 | 111940
6 | 24:52.41 | 4:21.24 | 111941 | 131539
7 | 29:13.65 | 4:06.34 | 131540 | 150023
8 | 33:20.24 | 3:47.60 | 150024 | 167108
9 | 37:08.09 | 3:12.09 | 167109 | 181517
10 | 40:20.18 | 15:04.30 | 181518 | 249347
11 | 55:24.48 | 20:44.66 | 249348 | 342713


Range status and errors

Selected range

Filename C:\temp\Mantovani - Le Sette Chiese; Streets; Eclair de Lune\Mantovani - La Sette Chiese; Streets; Eclair de Lune.wav

Peak level 98.8 %
Extraction speed 4.1 X
Range quality 99.9 %
Test CRC 5318456E
Copy CRC 5318456E
Copy OK

No errors occurred


AccurateRip summary

Track 1 accurately ripped (confidence 7) [3AE6124A] (AR v2)
Track 2 accurately ripped (confidence 7) [419C9589] (AR v2)
Track 3 accurately ripped (confidence 7) [C01AF816] (AR v2)
Track 4 accurately ripped (confidence 7) [0380CCF3] (AR v2)
Track 5 accurately ripped (confidence 7) [6E3B6117] (AR v2)
Track 6 accurately ripped (confidence 7) [EBF9BAD7] (AR v2)
Track 7 accurately ripped (confidence 7) [0CEE584A] (AR v2)
Track 8 accurately ripped (confidence 7) [D03E04AE] (AR v2)
Track 9 accurately ripped (confidence 7) [CF3ED1D1] (AR v2)
Track 10 cannot be verified as accurate (confidence 7) [17199F45], AccurateRip returned [CD2216B4] (AR v2)
Track 11 accurately ripped (confidence 7) [6B3ABECA] (AR v2)

10 track(s) accurately ripped
1 track(s) could not be verified as accurate

Some tracks could not be verified as accurate

End of status report

==== Log checksum 6934C01E257FDA60A46B3A77EC35C5A097CBDE7D1E5D8DFEFCBE95DAE8CB0DFC ====

[CUETools log; Date: 07.10.2017 10:17:32; Version: 2.1.5]
[CTDB TOCID: bA8l_OLBzHutjFXJ4sGTRgjIjAQ-] found.
Track | CTDB Status
1 | (9/9) Accurately ripped
2 | (9/9) Accurately ripped
3 | (9/9) Accurately ripped
4 | (9/9) Accurately ripped
5 | (9/9) Accurately ripped
6 | (9/9) Accurately ripped
7 | (9/9) Accurately ripped
8 | (9/9) Accurately ripped
9 | (9/9) Accurately ripped
10 | (9/9) Differs in 130 samples @08:35:65-08:35:66,08:36:09-08:36:10
11 | (9/9) Accurately ripped
[AccurateRip ID: 001765a3-00d264ee-7311d90b] found.
Track [ CRC | V2 ] Status
01 [c35e34e7|3ae6124a] (0+7/7) Accurately ripped
02 [9a9c8564|419c9589] (0+7/7) Accurately ripped
03 [85b8a89d|c01af816] (0+7/7) Accurately ripped
04 [58fe48bb|0380ccf3] (0+7/7) Accurately ripped
05 [ad84a668|6e3b6117] (0+7/7) Accurately ripped
06 [03739a68|ebf9bad7] (0+7/7) Accurately ripped
07 [7770c664|0cee584a] (0+7/7) Accurately ripped
08 [5524f790|d03e04ae] (0+7/7) Accurately ripped
09 [800c3543|cf3ed1d1] (0+7/7) Accurately ripped
10 [d5ecc9ca|17199f45] (0+0/7) No match
11 [7a236e9f|6b3abeca] (0+7/7) Accurately ripped

Track Peak [ CRC32 ] [W/O NULL] [ LOG ]
– 98,8 [5318456E] [02305015] CRC32
01 86,6 [0C92AE20] [E5DCEA2A]
02 98,8 [BEECBD10] [0E450B52]
03 32,2 [DEC6B5C5] [359698DD]
04 92,8 [BE0AE445] [7853FE35]
05 92,2 [F229EB71] [2C19FAC9]
06 95,1 [D0C2597C] [0382D608]
07 98,0 [8BE0678B] [569DFC2B]
08 40,8 [B99B4358] [639F4C75]
09 98,8 [91D7FD78] [7C1C5914]
10 64,4 [7DE6245B] [B3FEBEA8]
11 68,2 [80CAEC36] [84704C92]

Thanks to the Original ripper A-Z!

Download: