Tags
Language
Tags
March 2023
Su Mo Tu We Th Fr Sa
26 27 28 1 2 3 4
5 6 7 8 9 10 11
12 13 14 15 16 17 18
19 20 21 22 23 24 25
26 27 28 29 30 31 1

Ian Bostridge, Thomas Adès - Franz Schubert: Winterreise (2019)

Posted By: ArlegZ
Ian Bostridge, Thomas Adès - Franz Schubert: Winterreise (2019)

Ian Bostridge, Thomas Adès - Franz Schubert: Winterreise (2019)
EAC | FLAC | Image (Cue & Log) ~ 233 Mb | Total time: 72:26 | Scans included
Classical | Label: Pentatone | # PTC5186764 | Recorded: 2018

Renowned Schubert interpreter Ian Bostridge revisits Winterreise, the greatest of all song cycles, on his first PENTATONE album. Bostridge presents this masterpiece together with pianist, conductor and composer Thomas Adès, who bases his profound accompaniment on a fresh engagement with the original manuscripts. Winterreise is the epitome of Romantic melancholia, written by a composer aware of his fatal illness but at the height of his creative powers. It is the first installment of a trilogy of PENTATONE recordings comprising the major Schubert song cycles. After Winterreise, Die schöne Müllerin and Schwanengesang will follow. Ian Bostridge is one of the most celebrated tenors and lied interpreters of his generation. Thomas Adès is best known as a composer but demonstrates his extraordinary skills as a song accompanist on his first PENTATONE recording.

Performer:
Ian Bostridge, tenor
Thomas Adès, piano

Tracklist:
Franz Schubert (1797-1828)
Die Winterreise, D. 911
01. Gute Nacht
02. Die Wetterfahne
03. Gefrorne Tränen
04. Erstarrung
05. Der Lindenbaum
06. Wasserflut
07. Auf dem Flusse
08. Rückblick
09. Irrlicht
10. Rast
11. Frühlingstraum
12. Einsamkeit
13. Die Post
14. Der greise Kopf
15. Die Krähe
16. Letzte Hoffnung
17. Im Dorfe
18. Der stürmische Morgen
19. Täuschung
20. Der Wegweisser
21. Das Wirtshaus
22. Mut
23. Die Nebensonnen
24. Der Leiermann


Exact Audio Copy V1.6 from 23. October 2020

EAC extraction logfile from 23. August 2022, 23:04

Ian Bostridge/Thomas Adès / Schubert: Winterreise

Used drive : HL-DT-STDVDRAM GH24NSD5 Adapter: 1 ID: 0

Read mode : Secure
Utilize accurate stream : Yes
Defeat audio cache : Yes
Make use of C2 pointers : No

Read offset correction : 6
Overread into Lead-In and Lead-Out : No
Fill up missing offset samples with silence : Yes
Delete leading and trailing silent blocks : No
Null samples used in CRC calculations : Yes
Used interface : Native Win32 interface for Win NT & 2000

Used output format : User Defined Encoder
Selected bitrate : 1024 kBit/s
Quality : High
Add ID3 tag : No
Command line compressor : C:\Program Files (x86)\Exact Audio Copy\FLAC\FLAC.EXE
Additional command line options : -6 -V -T "ARTIST=%artist%" -T "TITLE=%title%" -T "ALBUM=%albumtitle%" -T "DATE=%year%" -T "TRACKNUMBER=%tracknr%" -T "GENRE=%genre%" -T "COMMENT=%comment%" -T "BAND=%albuminterpret%" -T "ALBUMARTIST=%albuminterpret%" -T "COMPOSER=%composer%" %haslyrics%–tag-from-file=LYRICS="%lyricsfile%"%haslyrics% -T "DISCNUMBER=%cdnumber%" -T "TOTALDISCS=%totalcds%" -T "TOTALTRACKS=%numtracks%" %hascover%–picture="%coverfile%"%hascover% %source% -o %dest% -T "RIPPER=Bodtje"


TOC of the extracted CD

Track | Start | Length | Start sector | End sector
––––––––––––––––––––––––––––-
1 | 0:00.00 | 5:36.66 | 0 | 25265
2 | 5:36.66 | 1:37.28 | 25266 | 32568
3 | 7:14.19 | 2:17.52 | 32569 | 42895
4 | 9:31.71 | 2:57.20 | 42896 | 56190
5 | 12:29.16 | 4:42.53 | 56191 | 77393
6 | 17:11.69 | 3:41.28 | 77394 | 93996
7 | 20:53.22 | 3:26.26 | 93997 | 109472
8 | 24:19.48 | 1:52.30 | 109473 | 117902
9 | 26:12.03 | 2:35.65 | 117903 | 129592
10 | 28:47.68 | 3:02.74 | 129593 | 143316
11 | 31:50.67 | 4:27.11 | 143317 | 163352
12 | 36:18.03 | 2:39.28 | 163353 | 175305
13 | 38:57.31 | 1:55.53 | 175306 | 183983
14 | 40:53.09 | 2:52.68 | 183984 | 196951
15 | 43:46.02 | 3:36.39 | 196952 | 213190
16 | 47:22.41 | 1:59.57 | 213191 | 222172
17 | 49:22.23 | 3:43.59 | 222173 | 238956
18 | 53:06.07 | 0:50.09 | 238957 | 242715
19 | 53:56.16 | 1:16.04 | 242716 | 248419
20 | 55:12.20 | 4:37.16 | 248420 | 269210
21 | 59:49.36 | 4:45.62 | 269211 | 290647
22 | 64:35.23 | 1:18.27 | 290648 | 296524
23 | 65:53.50 | 2:35.17 | 296525 | 308166
24 | 68:28.67 | 3:55.69 | 308167 | 325860


Range status and errors

Selected range

Filename D:\Rips\Schubert - Winterreise - Bostridge, Adès\Ian Bostridge,Thomas Adès - Schubert- Winterreise.wav

Peak level 96.0 %
Extraction speed 8.3 X
Range quality 100.0 %
Test CRC B4417836
Copy CRC B4417836
Copy OK

No errors occurred


AccurateRip summary

Track 1 accurately ripped (confidence 7) [D24A4481] (AR v2)
Track 2 accurately ripped (confidence 7) [DA163543] (AR v2)
Track 3 accurately ripped (confidence 7) [09EA3979] (AR v2)
Track 4 accurately ripped (confidence 7) [2B2025FF] (AR v2)
Track 5 accurately ripped (confidence 7) [228B5615] (AR v2)
Track 6 accurately ripped (confidence 7) [4DD07B21] (AR v2)
Track 7 accurately ripped (confidence 7) [D1B7EA88] (AR v2)
Track 8 accurately ripped (confidence 7) [B3BF474A] (AR v2)
Track 9 accurately ripped (confidence 7) [E0C8DF35] (AR v2)
Track 10 accurately ripped (confidence 7) [5BEC4C4C] (AR v2)
Track 11 accurately ripped (confidence 7) [CE1AAE6B] (AR v2)
Track 12 accurately ripped (confidence 7) [C2C5B626] (AR v2)
Track 13 accurately ripped (confidence 7) [0416921C] (AR v2)
Track 14 accurately ripped (confidence 7) [CDFB083F] (AR v2)
Track 15 accurately ripped (confidence 7) [B0658AFB] (AR v2)
Track 16 accurately ripped (confidence 7) [2FC80879] (AR v2)
Track 17 accurately ripped (confidence 7) [2A638C7D] (AR v2)
Track 18 accurately ripped (confidence 7) [788224B8] (AR v2)
Track 19 accurately ripped (confidence 7) [5256DFEF] (AR v2)
Track 20 accurately ripped (confidence 7) [77EE2693] (AR v2)
Track 21 accurately ripped (confidence 7) [964F0194] (AR v2)
Track 22 accurately ripped (confidence 7) [A21B6FDB] (AR v2)
Track 23 accurately ripped (confidence 7) [E5920642] (AR v2)
Track 24 accurately ripped (confidence 7) [0F08C7CE] (AR v2)

All tracks accurately ripped

End of status report

–– CUETools DB Plugin V2.1.6

[CTDB TOCID: zJ1O3mblwxjEixjVUC9nH_n3r40-] found
Submit result: zJ1O3mblwxjEixjVUC9nH_n3r40- has been confirmed
Track | CTDB Status
1 | (15/15) Accurately ripped
2 | (15/15) Accurately ripped
3 | (15/15) Accurately ripped
4 | (15/15) Accurately ripped
5 | (15/15) Accurately ripped
6 | (15/15) Accurately ripped
7 | (15/15) Accurately ripped
8 | (15/15) Accurately ripped
9 | (15/15) Accurately ripped
10 | (15/15) Accurately ripped
11 | (15/15) Accurately ripped
12 | (15/15) Accurately ripped
13 | (15/15) Accurately ripped
14 | (15/15) Accurately ripped
15 | (15/15) Accurately ripped
16 | (15/15) Accurately ripped
17 | (15/15) Accurately ripped
18 | (15/15) Accurately ripped
19 | (14/15) Accurately ripped
20 | (14/15) Accurately ripped
21 | (15/15) Accurately ripped
22 | (15/15) Accurately ripped
23 | (15/15) Accurately ripped
24 | (15/15) Accurately ripped


==== Log checksum 5C9EA13B8E41C9DA46966E912B1ABBD6BC2C069FF6F75607F598B3D6812790B1 ====

Ian Bostridge, Thomas Adès - Franz Schubert: Winterreise (2019)

Thanks to the original releaser