Tags
Language
Tags
November 2022
Su Mo Tu We Th Fr Sa
30 31 1 2 3 4 5
6 7 8 9 10 11 12
13 14 15 16 17 18 19
20 21 22 23 24 25 26
27 28 29 30 1 2 3

Ian Carr - Out Of The Long Dark (1979) & Old Heartland (1988) [Reissue 1998]

Posted By: gribovar
Ian Carr - Out Of The Long Dark (1979) & Old Heartland (1988) [Reissue 1998]

Ian Carr - Out Of The Long Dark (1979) & Old Heartland (1988) [Reissue 1998]
EAC Rip | FLAC (image+.cue+log) - 554 MB | Covers - 59 MB
Genre: Progressive/Jazz Rock, Fusion | RAR 3% Rec. | Label: BGO Records (BGOCD420)

"Out Of The Long Dark" is the last album of the second full- fledged stable lie-up Nucleus group (one that had started with Under The Sun) and we're still finding keyboardist Geoff Castle and drummer Roger Sellers, and returning to the fold, woodwind player Brian Smith. Only bassist Billy Kristian is new, replacing the usual Sutton.
"Old Heartland" was only the second album under his own name proper (no link with Nucleus) after 1971's Belladonna, but if his first try was much in the group's soundscapes, "Old Heartland" steps away from it. The album is broken down in two parts, the Third Stream suite and the shorter tracks on the flipside, which still features some Nucleus pillars like Geoff Castle and John Marshall and has Colosseum's Hiseman engineering it on the Abbey Road studios.

CD 1 Tracklist (Out Of The Long Dark, 1979):
01. Gone With the Weed
02. Lady Bountiful
03. Solar Wind
04. Selina
05. Out of the Long Dark (Conception)
06. Sassy (American Girl)
07. Simply This (The Human Condition)
08. Black Ballad (Ecce Domina)
09. For Liam

Total time: 49:44

CD 2 Tracklist (Old Heartland, 1988):
01. Northumbrian Sketches, Part 1: Open Country
02. Northumbrian Sketches, Part 2: Interiors
03. Northumbrian Sketches, Part 3: Disjunctive Boogie
04. Northumbrian Sketches, Part 4: Spirit Of Place
05. Full Fathom Five
06. Old Heartland
07. Things Past

Total time: 52:41

Exact Audio Copy V0.99 prebeta 4 from 23. January 2008

EAC extraction logfile from 22. September 2011, 9:59

Ian Carr / Out Of The Long Dark

Used drive : TSSTcorpCDDVDW TS-L633C Adapter: 0 ID: 1

Read mode : Secure
Utilize accurate stream : Yes
Defeat audio cache : Yes
Make use of C2 pointers : No

Read offset correction : 6
Overread into Lead-In and Lead-Out : No
Fill up missing offset samples with silence : Yes
Delete leading and trailing silent blocks : No
Null samples used in CRC calculations : Yes
Used interface : Native Win32 interface for Win NT & 2000

Used output format : User Defined Encoder
Selected bitrate : 1024 kBit/s
Quality : High
Add ID3 tag : No
Command line compressor : C:\Program Files\FLAC\flac.exe
Additional command line options : -8 -V -T "ARTIST=%a" -T "TITLE=%t" -T "ALBUM=%g" -T "DATE=%y" -T "TRACKNUMBER=%n" -T "GENRE=%m" -T "COMMENT=%e" %s -o %d


TOC of the extracted CD

Track | Start | Length | Start sector | End sector
––––––––––––––––––––––––––––-
1 | 0:00.00 | 3:29.00 | 0 | 15674
2 | 3:29.00 | 9:15.40 | 15675 | 57339
3 | 12:44.40 | 7:35.37 | 57340 | 91501
4 | 20:20.02 | 4:11.25 | 91502 | 110351
5 | 24:31.27 | 7:30.43 | 110352 | 144144
6 | 32:01.70 | 5:12.05 | 144145 | 167549
7 | 37:14.00 | 4:31.12 | 167550 | 187886
8 | 41:45.12 | 6:55.55 | 187887 | 219066
9 | 48:40.67 | 1:03.40 | 219067 | 223831


Range status and errors

Selected range

Filename C:\Documents and Settings\Ian Carr & Nucleus - Out Of The Long Dark & Old Heartland\Ian Carr - Out Of The Long Dark.wav

Peak level 100.0 %
Range quality 100.0 %
Test CRC C7924091
Copy CRC C7924091
Copy OK

No errors occurred


AccurateRip summary

Track 1 not present in database
Track 2 not present in database
Track 3 cannot be verified as accurate (confidence 2) [DF5D20CE], AccurateRip returned [C6B6488E]
Track 4 cannot be verified as accurate (confidence 2) [8847EF63], AccurateRip returned [F713CD83]
Track 5 cannot be verified as accurate (confidence 2) [DA9F7F81], AccurateRip returned [E28DD8E1]
Track 6 cannot be verified as accurate (confidence 2) [BC62CCE3], AccurateRip returned [80520803]
Track 7 cannot be verified as accurate (confidence 2) [C55C8F4E], AccurateRip returned [32F94D4E]
Track 8 cannot be verified as accurate (confidence 2) [4858476B], AccurateRip returned [476BC44B]
Track 9 cannot be verified as accurate (confidence 2) [ED154BA2], AccurateRip returned [D1037CE2]

7 track(s) could not be verified as accurate
2 track(s) not present in the AccurateRip database

No tracks could be verified as accurate
You may have a different pressing from the one(s) in the database

End of status report

[CUETools log; Date: 29.11.2019 17:06:14; Version: 2.1.4]
[CTDB TOCID: rZKbcjPbu6xqoBJjvge960GiYWM-] found.
Track | CTDB Status
1 | (13/13) Accurately ripped
2 | (13/13) Accurately ripped
3 | (13/13) Accurately ripped
4 | (13/13) Accurately ripped
5 | (13/13) Accurately ripped
6 | (13/13) Accurately ripped
7 | (13/13) Accurately ripped
8 | (12/13) Accurately ripped
9 | (13/13) Accurately ripped
[AccurateRip ID: 00129346-00875fc6-680ba809] found.
Track [ CRC | V2 ] Status
01 [8f66ca57|fbffb4c4] (0+0/6) No match
02 [56011c62|81ff271a] (0+0/6) No match
03 [df5d20ce|4e2097d3] (0+0/8) No match
04 [8847ef63|5abb4b87] (0+0/8) No match
05 [da9f7f81|dffc54e8] (0+0/8) No match
06 [bc62cce3|623e75ed] (0+0/8) No match
07 [c55c8f4e|70c5751c] (0+0/8) No match
08 [4858476b|fe52e05e] (0+0/8) No match
09 [ed154ba2|b17a2637] (0+0/8) No match
Offsetted by 36:
01 [336d64a3] (0/6) No match (V2 was not tested)
02 [db466382] (0/6) No match (V2 was not tested)
03 [961e8fb6] (0/8) No match (V2 was not tested)
04 [51d462af] (0/8) No match (V2 was not tested)
05 [1d98e105] (0/8) No match (V2 was not tested)
06 [e5dc830f] (0/8) No match (V2 was not tested)
07 [6e77568e] (0/8) No match (V2 was not tested)
08 [07ff963f] (0/8) No match (V2 was not tested)
09 [628e9e1a] (0/8) No match (V2 was not tested)
Offsetted by 96:
01 [9a231077] (0/6) No match (V2 was not tested)
02 [640f2f62] (0/6) No match (V2 was not tested)
03 [c6b6488e] (2/8) Accurately ripped
04 [f713cd83] (2/8) Accurately ripped
05 [e28dd8e1] (2/8) Accurately ripped
06 [80520803] (2/8) Accurately ripped
07 [32f94d4e] (2/8) Accurately ripped
08 [476bc44b] (2/8) Accurately ripped
09 [d1037ce2] (2/8) Accurately ripped
Offsetted by 750:
01 [9345ae31] (0/6) No match (V2 was not tested)
02 [03cf10d2] (0/6) No match (V2 was not tested)
03 [3ec5a75a] (0/8) No match (V2 was not tested)
04 [99e0a6bd] (0/8) No match (V2 was not tested)
05 [f89599bf] (0/8) No match (V2 was not tested)
06 [c71fcacd] (0/8) No match (V2 was not tested)
07 [ddb51bae] (0/8) No match (V2 was not tested)
08 [61208701] (0/8) No match (V2 was not tested)
09 [d1ca2c66] (0/8) No match (V2 was not tested)

Track Peak [ CRC32 ] [W/O NULL] [ LOG ]
– 100,0 [C7924091] [1FBCE5D9] CRC32
01 99,9 [C437C4C2] [F5612218]
02 99,9 [BF4E192B] [DB36B3EC]
03 89,1 [27DF96A9] [6AD037D5]
04 100,0 [18B8DFF5] [21B5852F]
05 89,1 [DB5FB77B] [0CF8B19D]
06 99,9 [7286A592] [D7AA8B0F]
07 100,0 [D274E08D] [1E467C89]
08 100,0 [4FBADBEF] [F59E9CE2]
09 37,2 [037025B2] [A1E5B626]

Exact Audio Copy V0.99 prebeta 4 from 23. January 2008

EAC extraction logfile from 22. September 2011, 10:33

Ian Carr / Old Heartland

Used drive : TSSTcorpCDDVDW TS-L633C Adapter: 0 ID: 1

Read mode : Secure
Utilize accurate stream : Yes
Defeat audio cache : Yes
Make use of C2 pointers : No

Read offset correction : 6
Overread into Lead-In and Lead-Out : No
Fill up missing offset samples with silence : Yes
Delete leading and trailing silent blocks : No
Null samples used in CRC calculations : Yes
Used interface : Native Win32 interface for Win NT & 2000

Used output format : User Defined Encoder
Selected bitrate : 1024 kBit/s
Quality : High
Add ID3 tag : No
Command line compressor : C:\Program Files\FLAC\flac.exe
Additional command line options : -8 -V -T "ARTIST=%a" -T "TITLE=%t" -T "ALBUM=%g" -T "DATE=%y" -T "TRACKNUMBER=%n" -T "GENRE=%m" -T "COMMENT=%e" %s -o %d


TOC of the extracted CD

Track | Start | Length | Start sector | End sector
––––––––––––––––––––––––––––-
1 | 0:00.00 | 10:40.07 | 0 | 48006
2 | 10:40.07 | 9:48.58 | 48007 | 92164
3 | 20:28.65 | 5:44.05 | 92165 | 117969
4 | 26:12.70 | 6:51.32 | 117970 | 148826
5 | 33:04.27 | 5:26.65 | 148827 | 173341
6 | 38:31.17 | 7:19.70 | 173342 | 206336
7 | 45:51.12 | 6:49.28 | 206337 | 237039


Range status and errors

Selected range

Filename C:\Documents and Settings\Ian Carr & Nucleus - Out Of The Long Dark & Old Heartland\Ian Carr - Old Heartland.wav

Peak level 100.0 %
Range quality 100.0 %
Test CRC F18683C9
Copy CRC F18683C9
Copy OK

No errors occurred


AccurateRip summary

Track 1 cannot be verified as accurate (confidence 2) [78B0B718], AccurateRip returned [4B8792F8]
Track 2 cannot be verified as accurate (confidence 2) [B7FE6860], AccurateRip returned [D3A28620]
Track 3 cannot be verified as accurate (confidence 2) [B7B3EDD1], AccurateRip returned [19117A31]
Track 4 cannot be verified as accurate (confidence 2) [C4C51909], AccurateRip returned [346734E9]
Track 5 cannot be verified as accurate (confidence 2) [41B477AA], AccurateRip returned [3B49162A]
Track 6 cannot be verified as accurate (confidence 2) [AE131C75], AccurateRip returned [CCC64C75]
Track 7 cannot be verified as accurate (confidence 2) [328A6155], AccurateRip returned [F1AE4355]

No tracks could be verified as accurate
You may have a different pressing from the one(s) in the database

End of status report

[CUETools log; Date: 29.11.2019 17:06:44; Version: 2.1.4]
[CTDB TOCID: Z7J0uJGL2qG80gHHLPYr0fmtdns-] found.
Track | CTDB Status
1 | (13/13) Accurately ripped
2 | (13/13) Accurately ripped
3 | (13/13) Accurately ripped
4 | (13/13) Accurately ripped
5 | (13/13) Accurately ripped
6 | (13/13) Accurately ripped
7 | (13/13) Accurately ripped
[AccurateRip ID: 000f9ec8-005b1568-570c5807] found.
Track [ CRC | V2 ] Status
01 [78b0b718|2bd2cfa1] (0+0/8) No match
02 [b7fe6860|4dd7b779] (0+0/8) No match
03 [b7b3edd1|956b0c63] (0+0/8) No match
04 [c4c51909|1c9f5987] (0+0/8) No match
05 [41b477aa|299012b6] (0+0/8) No match
06 [ae131c75|9c9dc84c] (0+0/8) No match
07 [328a6155|6495e8ad] (0+0/8) No match
Offsetted by 96:
01 [4b8792f8] (2/8) Accurately ripped
02 [d3a28620] (2/8) Accurately ripped
03 [19117a31] (2/8) Accurately ripped
04 [346734e9] (2/8) Accurately ripped
05 [3b49162a] (2/8) Accurately ripped
06 [ccc64c75] (2/8) Accurately ripped
07 [f1ae4355] (2/8) Accurately ripped
Offsetted by 36:
01 [c7c1498c] (0/8) No match (V2 was not tested)
02 [625bf388] (0/8) No match (V2 was not tested)
03 [7c370275] (0/8) No match (V2 was not tested)
04 [cea1e37d] (0/8) No match (V2 was not tested)
05 [5f4c331a] (0/8) No match (V2 was not tested)
06 [f9964e75] (0/8) No match (V2 was not tested)
07 [3a37d615] (0/8) No match (V2 was not tested)
Offsetted by 750:
01 [e7df4cde] (0/8) No match (V2 was not tested)
02 [bff090cc] (0/8) No match (V2 was not tested)
03 [605ec67f] (0/8) No match (V2 was not tested)
04 [3ce792cf] (0/8) No match (V2 was not tested)
05 [7f8d8df2] (0/8) No match (V2 was not tested)
06 [fdeb0375] (0/8) No match (V2 was not tested)
07 [27d2b6f5] (0/8) No match (V2 was not tested)

Track Peak [ CRC32 ] [W/O NULL] [ LOG ]
– 100,0 [F18683C9] [9B7A06A1] CRC32
01 98,8 [FCFA74E9] [5F1C71A0]
02 99,9 [49BFE792] [0595CF74]
03 99,9 [56ADB7F8] [733D87EF]
04 99,9 [7C858E6A] [913323D7]
05 100,0 [1C8E7BD9] [128788F1]
06 98,8 [4B125BDD] [36978251]
07 99,9 [A75DCE7D] [1794F07A]

Thanks to jsBah