Subcategories
Tags
Language
Tags

Ida Haendel, Bournemouth SO, Paavo Berglund - Benjamin Britten & William Walton: Violin Concertos (1978/1992) [Re-Up]

Posted By: Designol
Ida Haendel, Bournemouth SO, Paavo Berglund - Benjamin Britten & William Walton: Violin Concertos (1978/1992) [Re-Up]

Benjamin Britten, William Walton: Violin Concertos (1978) Reissue 1992
Ida Haendel (violin); Bournemouth Symphony Orchestra, conducted by Paavo Berglund

EAC | FLAC | Tracks (Cue&Log) ~ 270 Mb | Mp3 (CBR320) ~ 152 Mb | Scans included
Genre: Classical | Label: EMI Classics | # CDM 7 64202 2 | Time: 01:02:27

Ida Haendel’s sinewy and athletic reading of the often under-rated Britten combines toughness with a cumulative dramatic impetus which is hard to resist. Berglund and the Bournemouth players respond with a terse and argumentative vigour, suitably balanced between resignation and defiant rhetoric, especially in the closing Passacaglia. The Walton Concerto, also dating from 1938-9, is played with an apposite blend of inscrutable panache, as in the irrepressibly brilliant central movement, and elsewhere, a sensuous, if occasionally over-indulgent languor. Rare lapses in the finale can be safely overlooked, in a performance of eloquence and undisputed stature.

Review by Michael Jameson, BBC Music Magazine

Ida Haendel, Bournemouth SO, Paavo Berglund - Benjamin Britten & William Walton: Violin Concertos (1978/1992) [Re-Up]



Ida Haendel, Bournemouth SO, Paavo Berglund - Benjamin Britten & William Walton: Violin Concertos (1978/1992) [Re-Up]



Ida Haendel, Bournemouth SO, Paavo Berglund - Benjamin Britten & William Walton: Violin Concertos (1978/1992) [Re-Up]



Recorded in the Guildhall, Southampton, 12 & 13 June 1977

Tracklist:

Benjamin Britten (1913-1976)
Violin Concerto Op.15
1. I. Moderato con moto [8.35]
2. II. Vivace — [8.26]
3. III. Passacaglia (Andante lento — Un poco meno mosso) [14.04]


Sir William Walton (1902-1983)
Violin Concerto in B minor
4. I. Andante tranquillo [11.24]
5. II. Presto capriccioso alla napolitana [6.42]
6. III. Vivace [12.58]


Exact Audio Copy V1.3 from 2. September 2016

EAC extraction logfile from 16. January 2017, 23:05

Ida Haendel (violin), Bournemouth Symphony Orchestra, Paavo Berglund / Britten & Walton - Violin Concertos

Used drive : PLEXTOR CD-R PREMIUM2 Adapter: 5 ID: 1

Read mode : Secure
Utilize accurate stream : Yes
Defeat audio cache : Yes
Make use of C2 pointers : No

Read offset correction : 30
Overread into Lead-In and Lead-Out : Yes
Fill up missing offset samples with silence : Yes
Delete leading and trailing silent blocks : No
Null samples used in CRC calculations : Yes
Used interface : Installed external ASPI interface
Gap handling : Appended to previous track

Used output format : User Defined Encoder
Selected bitrate : 896 kBit/s
Quality : High
Add ID3 tag : No
Command line compressor : C:\Program Files\Exact Audio Copy\Flac\flac.exe
Additional command line options : -6 -V -T "ARTIST=%artist%" -T "TITLE=%title%" -T "ALBUM=%albumtitle%" -T "DATE=%year%" -T "PERFORMER=%albuminterpret%" -T "TRACKNUMBER=%tracknr%" -T "TOTALTRACKS=%numtracks%" -T "GENRE=%genre%" -T "COMPOSER=%composer%" -T "ALBUMARTIST=%albumartist%" -T "ALBUM ARTIST=%albumartist%" -T "COMMENT=EAC Secure Mode, Test & Copy, AccurateRip, FLAC -6" %source%


TOC of the extracted CD

Track | Start | Length | Start sector | End sector
––––––––––––––––––––––––––––-
1 | 0:00.33 | 8:34.67 | 33 | 38649
2 | 8:35.25 | 8:26.30 | 38650 | 76629
3 | 17:01.55 | 14:14.13 | 76630 | 140692
4 | 31:15.68 | 11:27.15 | 140693 | 192232
5 | 42:43.08 | 6:45.35 | 192233 | 222642
6 | 49:28.43 | 12:58.40 | 222643 | 281032


Track 1

Filename D:\EAC extraction\01 - Britten, Violin Concerto Op.15 - I. Moderato con moto.wav

Pre-gap length 0:00:02.33

Peak level 68.7 %
Extraction speed 1.9 X
Track quality 99.9 %
Test CRC B54E154E
Copy CRC B54E154E
Accurately ripped (confidence 3) [54849D21] (AR v2)
Copy OK

Track 2

Filename D:\EAC extraction\02 - II. Vivace -.wav

Pre-gap length 0:00:00.02

Peak level 100.0 %
Extraction speed 1.9 X
Track quality 100.0 %
Test CRC CE5EEC14
Copy CRC CE5EEC14
Accurately ripped (confidence 3) [E8B0F5CC] (AR v2)
Copy OK

Track 3

Filename D:\EAC extraction\03 - III. Passacaglia (Andante lento - Un poco meno mosso).wav

Pre-gap length 0:00:00.02

Peak level 80.8 %
Extraction speed 1.9 X
Track quality 100.0 %
Test CRC BDE826F3
Copy CRC BDE826F3
Accurately ripped (confidence 3) [F7389329] (AR v2)
Copy OK

Track 4

Filename D:\EAC extraction\04 - Walton, Violin Concerto in B minor - I. Andante tranquillo.wav

Pre-gap length 0:00:09.38

Peak level 93.1 %
Extraction speed 1.9 X
Track quality 99.9 %
Test CRC 9D40E9FE
Copy CRC 9D40E9FE
Accurately ripped (confidence 3) [2883ED7B] (AR v2)
Copy OK

Track 5

Filename D:\EAC extraction\05 - II. Presto capriccioso a la napolitana.wav

Pre-gap length 0:00:03.00

Peak level 77.8 %
Extraction speed 1.9 X
Track quality 100.0 %
Test CRC CE6C1EEB
Copy CRC CE6C1EEB
Accurately ripped (confidence 3) [F88218A6] (AR v2)
Copy OK

Track 6

Filename D:\EAC extraction\06 - III. Vivace.wav

Pre-gap length 0:00:03.20

Peak level 83.6 %
Extraction speed 1.9 X
Track quality 99.9 %
Test CRC 0A7CF77B
Copy CRC 0A7CF77B
Accurately ripped (confidence 3) [EC075C34] (AR v2)
Copy OK


All tracks accurately ripped

No errors occurred

End of status report

–– CUETools DB Plugin V2.1.6

[CTDB TOCID: H8n.8sj4eNptRdmd56aWBH3zukE-] found
Submit result: H8n.8sj4eNptRdmd56aWBH3zukE- has been confirmed
Track | CTDB Status
1 | (1/1) Accurately ripped
2 | (1/1) Accurately ripped
3 | (1/1) Accurately ripped
4 | (1/1) Accurately ripped
5 | (1/1) Accurately ripped
6 | (1/1) Accurately ripped


==== Log checksum 77486DCEEBACD1A3BA2AF8663D6EE211AEEF9D2EECF612C5DEB5EBE451D32884 ====

foobar2000 1.2 / Dynamic Range Meter 1.1.1
log date: 2017-03-26 16:08:25

––––––––––––––––––––––––––––––––––––––––
Analyzed: Ida Haendel (violin), Bournemouth Symphony Orchestra, Paavo Berglund / Britten & Walton - Violin Concertos
––––––––––––––––––––––––––––––––––––––––

DR Peak RMS Duration Track
––––––––––––––––––––––––––––––––––––––––
DR15 -3.25 dB -25.17 dB 8:35 01-Britten: Violin Concerto Op.15 - I. Moderato con moto
DR15 0.00 dB -21.84 dB 8:26 02-II. Vivace -
DR14 -1.84 dB -22.19 dB 14:14 03-III. Passacaglia (Andante lento - Un poco meno mosso)
DR16 -0.62 dB -23.64 dB 11:27 04-Walton: Violin Concerto in B minor - I. Andante tranquillo
DR18 -2.18 dB -26.21 dB 6:45 05-II. Presto capriccioso a la napolitana
DR17 -1.55 dB -25.01 dB 12:59 06-III. Vivace
––––––––––––––––––––––––––––––––––––––––

Number of tracks: 6
Official DR value: DR16

Samplerate: 44100 Hz
Channels: 2
Bits per sample: 16
Bitrate: 561 kbps
Codec: FLAC
================================================================================

Ida Haendel, Bournemouth SO, Paavo Berglund - Benjamin Britten & William Walton: Violin Concertos (1978/1992) [Re-Up]

Ida Haendel, Bournemouth SO, Paavo Berglund - Benjamin Britten & William Walton: Violin Concertos (1978/1992) [Re-Up]

All thanks to original releaser

More interesting music in My Blog