Subcategories

Ike & Tina Turner - The Collection (2009)

Posted By: BlondStyle
Ike & Tina Turner - The Collection (2009)

Ike & Tina Turner - The Collection (2009)
R&B, Pop/Rock, Soul | EAC Rip | FLAC, Img+CUE+LOG+Scans (JPEG) | 01:08:44 | 438,60 Mb
Label: EMI Gold (UK & Europe) | Cat.# 50999 2 68023 2 9 (268 0232) | Released: 2009-01-05
Ike & Tina Turner - The Collection (2009)

Tina Turner has become a rock 'n' roll icon and arguably the most successful female rock vocalist ever. Her success has meant that the Ike & Tina phase of her career has been easily overlooked, but this CD provides 20 examples of just how groundbreaking and influential Ike & Tina were as a duo.
~Amazon

Ike & Tina Turner - The Collection (2009)

Ike & Tina Turner - The Collection (2009)




Release of this CD: 2009, January, 5 [CD EMI Gold (UK & Europe), Cat.# 50999 2 68023 2 9 (268 0232) / UPC: 5099926802329]
This compilation ℗&© 2009 EMI Records Ltd.
Made in the E.U.

Credits:

Design – Darren Evans
Liner Notes – Ken Crossland


Tracklist:

01. Proud Mary (04:58)
02. Nutbush City Limits (02:59)
03. Get Back (03:03)
04. Honky Tonk Women (03:11)
05. Living for the City (03:41)
06. I Want to Take You Higher (02:54)
07. Come Together (03:40)
08. Higher Ground (03:42)
09. Working Together (03:33)
10. Sexy Ida (03:01)
11. I Idolize You (02:52)
12. Drift Away (03:24)
13. Sweet Rhode Island Red (03:16)
14. Early in the Morning (03:39)
15. I'm Yours (Use Me Any Way You Wanna) (02:50)
16. Love Like Yours (03:56)
17. I Heard It Through the Grapevine [Live] (03:27)
18. I've Been Loving You Too Long (03:56)
19. Whole Lotta Love (04:42)
20. I Like It (02:00)

Exact Audio Copy V1.0 beta 3 from 29. August 2011

EAC extraction logfile from 30. January 2013, 23:27

Ike & Tina Turner / The Collection

Used drive : Optiarc DVD RW AD-5280S Adapter: 2 ID: 1

Read mode : Secure
Utilize accurate stream : Yes
Defeat audio cache : Yes
Make use of C2 pointers : No

Read offset correction : 48
Overread into Lead-In and Lead-Out : No
Fill up missing offset samples with silence : Yes
Delete leading and trailing silent blocks : No
Null samples used in CRC calculations : Yes
Used interface : Installed external ASPI interface

Used output format : Internal WAV Routines
Sample format : 44.100 Hz; 16 Bit; Stereo


TOC of the extracted CD

Track | Start | Length | Start sector | End sector
––––––––––––––––––––––––––––-
1 | 0:00.00 | 4:58.37 | 0 | 22386
2 | 4:58.37 | 2:58.70 | 22387 | 35806
3 | 7:57.32 | 3:03.28 | 35807 | 49559
4 | 11:00.60 | 3:10.50 | 49560 | 63859
5 | 14:11.35 | 3:41.02 | 63860 | 80436
6 | 17:52.37 | 2:54.18 | 80437 | 93504
7 | 20:46.55 | 3:40.00 | 93505 | 110004
8 | 24:26.55 | 3:42.00 | 110005 | 126654
9 | 28:08.55 | 3:33.27 | 126655 | 142656
10 | 31:42.07 | 3:00.65 | 142657 | 156221
11 | 34:42.72 | 2:52.25 | 156222 | 169146
12 | 37:35.22 | 3:23.45 | 169147 | 184416
13 | 40:58.67 | 3:15.73 | 184417 | 199114
14 | 44:14.65 | 3:39.05 | 199115 | 215544
15 | 47:53.70 | 2:49.72 | 215545 | 228291
16 | 50:43.67 | 3:55.73 | 228292 | 245989
17 | 54:39.65 | 3:26.45 | 245990 | 261484
18 | 58:06.35 | 3:55.71 | 261485 | 279180
19 | 62:02.31 | 4:42.24 | 279181 | 300354
20 | 66:44.55 | 1:59.44 | 300355 | 309323


Range status and errors

Selected range

Filename C:\Ike & Tina Turner - The Collection.wav

Peak level 94.9 %
Extraction speed 4.1 X
Range quality 100.0 %
Test CRC 91218891
Copy CRC 91218891
Copy OK

No errors occurred


AccurateRip summary

Track 1 accurately ripped (confidence 5) [6C32BAF6] (AR v1)
Track 2 accurately ripped (confidence 5) [E4289625] (AR v1)
Track 3 accurately ripped (confidence 5) [FD206780] (AR v1)
Track 4 accurately ripped (confidence 5) [57DAA964] (AR v1)
Track 5 accurately ripped (confidence 5) [DD1A2013] (AR v1)
Track 6 accurately ripped (confidence 5) [9E70ADE3] (AR v1)
Track 7 accurately ripped (confidence 5) [E4A78BD0] (AR v1)
Track 8 accurately ripped (confidence 5) [F019BB9A] (AR v1)
Track 9 accurately ripped (confidence 5) [B1C511D8] (AR v1)
Track 10 accurately ripped (confidence 5) [5A29039D] (AR v1)
Track 11 accurately ripped (confidence 5) [AD514DEC] (AR v1)
Track 12 accurately ripped (confidence 5) [30BDB7AE] (AR v1)
Track 13 accurately ripped (confidence 5) [A95D64E5] (AR v1)
Track 14 accurately ripped (confidence 5) [1C0C38CB] (AR v1)
Track 15 accurately ripped (confidence 5) [8515E7C4] (AR v1)
Track 16 accurately ripped (confidence 5) [BDBB7BD0] (AR v1)
Track 17 accurately ripped (confidence 5) [A416604F] (AR v1)
Track 18 accurately ripped (confidence 5) [343AB911] (AR v1)
Track 19 accurately ripped (confidence 5) [2E5C9CC6] (AR v1)
Track 20 accurately ripped (confidence 5) [0338B122] (AR v1)

All tracks accurately ripped

End of status report

==== Log checksum 4DBD44CEEB1E435C1EB7A2749D4359536D9258032BE2F85DF726BA67B034D720 ====

––––––––––––––––––––––––––––––––––––––––
Analyzed: Ike & Tina Turner / The Collection
––––––––––––––––––––––––––––––––––––––––

DR Peak RMS Duration Track
––––––––––––––––––––––––––––––––––––––––
DR13 -0.67 dB -17.63 dB 4:58 01-Proud Mary
DR13 -1.78 dB -16.75 dB 2:59 02-Nutbush City Limits
DR13 -1.13 dB -16.08 dB 3:03 03-Get Back
DR12 -0.68 dB -15.21 dB 3:11 04-Honky Tonk Women
DR13 -0.74 dB -17.42 dB 3:41 05-Living for the City
DR12 -0.71 dB -14.89 dB 2:54 06-I Want to Take You Higher
DR12 -0.52 dB -16.10 dB 3:40 07-Come Together
DR14 -1.23 dB -17.22 dB 3:42 08-Higher Ground
DR13 -0.67 dB -16.50 dB 3:33 09-Working Together
DR12 -1.67 dB -16.44 dB 3:01 10-Sexy Ida
DR10 -1.11 dB -13.94 dB 2:52 11-I Idolize You
DR13 -0.70 dB -17.29 dB 3:24 12-Drift Away
DR12 -0.76 dB -16.21 dB 3:16 13-Sweet Rhode Island Red
DR13 -0.45 dB -15.85 dB 3:39 14-Early in the Morning
DR11 -2.44 dB -15.44 dB 2:50 15-I'm Yours (Use Me Any Way You Wanna)
DR15 -0.61 dB -20.62 dB 3:56 16-Love Like Yours
DR11 -3.14 dB -17.48 dB 3:27 17-I Heard It Through the Grapevine [Live]
DR10 -3.37 dB -17.98 dB 3:56 18-I've Been Loving You Too Long
DR10 -4.10 dB -17.37 dB 4:42 19-Whole Lotta Love
DR13 -2.10 dB -16.09 dB 2:00 20-I Like It
––––––––––––––––––––––––––––––––––––––––

Number of tracks: 20
Official DR value: DR12

Samplerate: 44100 Hz
Channels: 2
Bits per sample: 16
Bitrate: 772 kbps
Codec: FLAC
================================================================================

Thanks to the original releaser

See also:

♫~Welcome To My Blog~♫

password: BlondStyle