Tags
Language
Tags
June 2024
Su Mo Tu We Th Fr Sa
26 27 28 29 30 31 1
2 3 4 5 6 7 8
9 10 11 12 13 14 15
16 17 18 19 20 21 22
23 24 25 26 27 28 29
30 1 2 3 4 5 6

Il Bacio Della Medusa - 3LP Collection (2004 - 2012) [Vinyl Rip 16/44 & mp3-320 + DVD]

Posted By: v3122
Il Bacio Della Medusa - 3LP Collection (2004 - 2012) [Vinyl Rip 16/44 & mp3-320 + DVD]

Il Bacio Della Medusa - 3LP Collection (2004 - 2012)
Vinyl Rip 16/44 | Flac(Image + Cue) > 981 Mb
MP3 CBR 320Kbps > 355 Mb | Artwork(jpg) > 168 Mb
DVD-9: NTSC 4:3 (720x480) VBR | LPCM, 2 ch, 24 bit, 96 kHz > 5.26 Gb
Black Widow, AMS | Progressive Rock, RPI

~ 2004 - Il Bacio Della Medusa (The Kiss of the Medusa) [Black Widow, BWR 101], 2008 - Discesa Agli Inferi Di Un Giovane Amante [Black Widow, BWR 102] & 2012 - Deus Lo Vult [AMS Records, AMS LP 127] ~

The project called “Il Bacio Della Medusa” (Medusa's Kiss) was born in September 2002, due to the efforts of Diego Petrini (drums), Federico Caprai (bass) and Simone Cecchini (voice, acoustic guitar).
An art-music workshop that from the very beginning was based on the extreme attention to lyrics and arrangement.
After several changes within the group, (guitarists and keyboard players alternate), the formation becomes stable in 2003 with Eva Morelli (Western Concert Flute, Alto Saxophone, Piccolo) that with the wind instruments will add creativity to the new group and Simone Brozzetti (Guitar) that will bring a definitely Blues Rock sound and a very instinctive and incisive style.
In April 2004, the BDM after a year and a half of work goes into the recording studio, the project was realized in June 2004 with the creation of self-produced first album, the self-titled “Il bacio della Medusa” (Medusa's Kiss).

In January 2005 Daniele Rinchi joins the group and with his violin will give a major contribution to the redefinition of the sound of the BDM which will undergo a further evolution with the help of new instruments to which Petrini's mellotron must be added. In May 2005 Black Widow Records is entrusted with the distribution of the first disc, while in September of the same year the BDM retires to the studio for the creation of new work: the concept album “Discesa agl'inferi di un giovane amante” ("Sheol descent of a young lover,") which will see the light of day in May 2006.
In these months, the group continues to publicize the previous disc and start testing the new songs revisiting their live performance. In September 2006 the group signs a record deal with Black Widow Records for the reissue of the first work and the production of the new disc (LP-CD).
From 2008 to 2010 the group performs on many stages both in Italy and in Europe that will appreciate the uniqueness of its music, ranging with ease from the grammatical prog to temperamentally heavy sound, to a very broad target, fond of live performances that are characterized by the great stage presence of the members. Meanwhile, the major rock and roll journals review the two disks positively by appreciating the skills of the artists.In the summer of 2010 the Violinist Daniel Rinchi leaves the band and the BDM closes the group with the actual arrangement. At the same time the group begins the writing of a new album "Deus lo vult" in June 2011 and enters the studio for the recordings.
In July 2011, the BDM leaves Black Widow Records and, aiming to the growth in terms of image, arrives at an experimental advertising project coordinated by Glare Art & Communicationss, which aims at raising the value of the band and at making it more attractive to new record labels.
Il BDM torna in studio nel 2010 e incide il brano “Fire”, tributo ad Arthur Brown.
Nell’estate 2010 il violinista conclude la sua collaborazione con la band e il BDM chiude l’organico alla formazione attuale; contemporaneamente inizia la stesura del nuovo album Deus Lo Vult e nel giugno 2011 il gruppo entra in studio di registrazione.

Nel luglio 2011 il BDM si distacca da BWR e prende parte ad un progetto sperimentale coordinato da Glare Art & Comunication che combina musica ed arte visuale.
La band partecipa inoltre alla seconda edizione della più celebre rassegna di musica progressiva PROG EXHIBITION (tenutasi il 21 e 22 ottobre 2011 al Palatendastrisce in Roma) diretta da Franz di Cioccio (PFM), dove il BDM ha l’occasione di esibirsi sul prestigioso palco accanto ad artisti del calibro di Steve Hackett (Genesis), Richard Sinclaire (Caravan, Hatefield and the North), Martin Barre (Jethro Tull), Mel Collins (King Crimson), Goblin, Balletto di Bronzo…

​Il mese di giugno 2012 vede per la band una doppia uscita, e cioè il terzo attesissimo lavoro in studio, il concept album Deus Lo Vult (personalissimo viaggio, intriso di passione e sangue, intrapreso dal “nobil condottiero” Simplicio ai tempi delle Crociate) ed il cd della seconda edizione del Prog Exhibition, contenente la versione live del brano Simplicio presente nell’ultimo disco.

Nell'autunno 2015 la band vede ristampata l'intera trilogia in una rinnovata e ricchissima versione dalla AMS Records di Matthias Sheller, in particolare la nuova versione dell'album Deus lo Vult corredata sia dalla copertina dipinta da Federico Caprai (a chiusura della trilogia) che dalla bonus track "Fire" di Arthur Brown.

Il 25 ottobre dello stesso anno la band torna sul palco per il Perugia ART ROCK FEST 2015 organizzato dall'associazione Il Circolo delle Menti in collaborazione con il Comune di Perugia ed il Forum Regionale dei Giovani Umbri presso il teatro Bertolt Brecht; il BDM avrà il piacere di suonare a fianco di uno dei principali autori del Rock progressivo italiano, lo storico ex frontman del gruppo Le Orme Aldo Tagliapietra con il quale duetterà in una memorabile versione del brano Amico di Ieri.
Il Live in questione verrà poi stampato su CD da Btf/AMS con il semplice titolo "Il Bacio della Medusa Live" nel 2016.

Sin dai primi mesi del 2017 il BDM si concentra sulla stesura dei brani per il nuovo album in studio, e in febbraio firma il contratto con AMS Records per l'attesissima stampa in vinile di Deus Lo Vult.
Dall'autunno 2017 il BDM inizia a collaborare con il funambolico chitarrista Simone "Il Poca" Matteucci ed
entra in studio per le registrazioni del nuovo album SEME* che verrà pubblicato da AMS il 15 Giugno 2018.

~ discogs
Il Bacio Della Medusa - 3LP Collection (2004 - 2012):

Il Bacio Della Medusa - 3LP Collection (2004 - 2012) [Vinyl Rip 16/44 & mp3-320 + DVD]

Tracklist LP1 - 2004 - Il Bacio Della Medusa (The Kiss of the Medusa) [Black Widow, BWR 101]:

A1 Requiem Per I Condannati A Morte (Incl. "Sogno Post Mortem: Fine D'Un Inverno")
A2 Orienteoccidente
A3 Scorticamento Di Marsia (I,II,III,IV)

B1 Il Vino (Breve Delirio Del Vino)
B2 Cantico Del Poeta Errante (I,II,III)
B3 De Luxuria, Et De Ludo Et De Taberna (I,II)

foobar2000 1.4 / Dynamic Range Meter 1.1.1
log date: 2018-09-02 21:54:13

––––––––––––––––––––––––––––––––––––––––
Analyzed: Il Bacio Della Medusa / Il Bacio Della Medusa
––––––––––––––––––––––––––––––––––––––––

DR Peak RMS Duration Track
––––––––––––––––––––––––––––––––––––––––
DR12 -1.81 dB -15.73 dB 8:55 01-A1 Requiem Per I Condannati A Morte
DR13 -0.98 dB -16.15 dB 5:23 02-A2 Orienteoccidente
DR13 -1.50 dB -16.44 dB 14:55 03-A3 Scorticamento Di Marsia
DR13 -0.72 dB -16.12 dB 6:49 04-B1 Il Vino (Breve Delirio Del Vino)
DR12 -0.44 dB -15.18 dB 8:23 05-B2 Cantico Del Poeta Errante
DR14 -0.38 dB -16.41 dB 12:07 06-B3 De Luxuria, Et De Ludo, Et De Taberna
––––––––––––––––––––––––––––––––––––––––

Number of tracks: 6
Official DR value: DR13

Samplerate: 44100 Hz
Channels: 2
Bits per sample: 16
Bitrate: 872 kbps
Codec: FLAC
================================================================================




Original ripper: Rockmaninov
Original format: 24/192
Vinyl Condition: Mint
Direct Drive Turntable: Clearaudio Champion Level II
Cartridge: Denon DL 103 SA Limited Edition
Amplifier: Pro-Ject Phono Box II
ADC: RME Fireface UC
Postprocessing: significant clicks manually removing, no De-Noising

Downsampled to 24/96 & 16/44

Il Bacio Della Medusa - 3LP Collection (2004 - 2012) [Vinyl Rip 16/44 & mp3-320 + DVD]

Tracklist LP2 - 2008 - Discesa Agli Inferi Di Un Giovane Amante [Black Widow, BWR 102]:

A1 Preludio: Il Trapasso
A2 Confessione D'Un Amante
A3 La Bestia Ed Il Delirio
A4 Recitativo: E Nel Buio Che Risplendono Le Stelle
A5 Ricordi Del Supplizio
A6 Nostalgia Pentimento E Rabbia

B1 Sudorazione A Freddo Sotto Il Chiaro Di Luna
B2 Melencolia
B3 E Fu Allora Che Dalle Fiamme Mi Sorprese Una Calda Brezza Celeste
B4 Nosce Te Ipsum: La Bestia Ringhia In Noi
B5 Corale Per Messa Da Requiem
B6 Epilogo: Conclusione Della Discesa Agl'Inferi D'Un Giovane Amante

foobar2000 1.4 / Dynamic Range Meter 1.1.1
log date: 2018-09-02 21:53:52

––––––––––––––––––––––––––––––––––––––––
Analyzed: Il Bacio Della Medusa / Discesa Agli Inferi Di Un Giovane Amante
––––––––––––––––––––––––––––––––––––––––

DR Peak RMS Duration Track
––––––––––––––––––––––––––––––––––––––––
DR9 -3.11 dB -16.18 dB 3:36 01-A1 Preludio- Il Trapasso
DR9 -2.22 dB -15.17 dB 3:05 02-A2 Confessione D'Un Amante
DR13 -0.23 dB -15.32 dB 5:23 03-A3 La Bestia E Il Delirio
DR12 -1.97 dB -17.06 dB 4:02 04-A4 Recitativo- E' Nel Buio Che Risplendono Le Stelle
DR11 -0.27 dB -13.76 dB 6:40 05-A5 Ricordi Del Supplizio
DR11 -0.21 dB -13.50 dB 7:02 06-A6 Nostalgia Pentimento E Rabbia
DR12 -0.29 dB -14.92 dB 6:05 07-B1 Sudorazione A Freddo Sotto Il Chiaro Di Luna
DR13 -0.35 dB -15.11 dB 5:43 08-B2 Melencolia
DR12 -0.43 dB -15.62 dB 3:41 09-B3 E Fu Allora Che Dalle Fiamme Mi Sorprese Una Calda Brezza Celeste
DR13 -0.44 dB -15.44 dB 5:23 10-B4 Nosce Te Ipsum- La Bestia Ringhia In Noi
DR10 -0.71 dB -15.28 dB 3:54 11-B5 Corale Per Messa Da Requiem
DR9 -1.88 dB -15.82 dB 1:48 12-B6 Epilogo- Conclusione Della Discesa Agl'Inferi D'Un Giovane Amante
––––––––––––––––––––––––––––––––––––––––

Number of tracks: 12
Official DR value: DR11

Samplerate: 44100 Hz
Channels: 2
Bits per sample: 16
Bitrate: 870 kbps
Codec: FLAC
================================================================================




Original ripper: Rockmaninov
Original format: 24/192
Vinyl Condition: Mint
Direct Drive Turntable: Clearaudio Champion Level II
Cartridge: Sumiko Black Bird
Amplifier: Pro-Ject Phono Box II
ADC: RME Fireface UC
Postprocessing: significant clicks manually removing, no De-Noising

Downsampled to 24/96 & 16/44

Il Bacio Della Medusa - 3LP Collection (2004 - 2012) [Vinyl Rip 16/44 & mp3-320 + DVD]

Tracklist LP3 - 2012 - Deus Lo Vult [AMS Records, AMS LP 127]:

A1 Invocazione alle Muse
A2 Indignatio (Infedeli in Terra Santa)
A3 Urbano II bandisce la Prima Crociata
A4 Simplicio

B1 Deus Lo Vult
B2 Verso Casa
B3 Beffa (Non un Trono, Non un Regno… solo Sdegno)
B4 Bonus track: Fire (Tributo ad Arthur Brown)

foobar2000 1.4 / Dynamic Range Meter 1.1.1
log date: 2018-09-02 21:54:28

––––––––––––––––––––––––––––––––––––––––
Analyzed: Il Bacio della Medusa / Deus Lo Vult
––––––––––––––––––––––––––––––––––––––––

DR Peak RMS Duration Track
––––––––––––––––––––––––––––––––––––––––
DR14 -4.07 dB -21.06 dB 2:03 01-A1 Invocazione alle Muse
DR12 -0.27 dB -14.58 dB 8:04 02-A2 Indignatio (Infedeli in Terra Santa)
DR11 -0.34 dB -13.87 dB 3:09 03-A3 Urbano II bandisce la Prima Crociata
DR12 -0.68 dB -16.49 dB 4:28 04-A4 Simplicio
DR12 -0.64 dB -14.88 dB 7:16 05-B1 Deus Lo Vult
DR12 -1.09 dB -15.42 dB 4:00 06-B2 Verso Casa
DR12 -0.37 dB -15.09 dB 4:56 07-B3 Beffa (Non un Trono, Non un Regno… solo Sdegno)
DR10 -0.64 dB -12.18 dB 3:36 08-B4 Bonus track- Fire (Tributo ad Arthur Brown)
––––––––––––––––––––––––––––––––––––––––

Number of tracks: 8
Official DR value: DR12

Samplerate: 44100 Hz
Channels: 2
Bits per sample: 16
Bitrate: 928 kbps
Codec: FLAC
================================================================================




Original ripper: Rockmaninov
Original format: 24/192
Vinyl Condition: Mint
Direct Drive Turntable: Vintage (1982) Yamaha PX-3
Cartridge: Sumiko Black Bird
Amplifier: Audio Research SP15
ADC: RME Fireface UC
Postprocessing: significant clicks manually removing, no De-Noising

Downsampled to 24/96 & 16/44

General
Complete name : E:\01 VNL\PROG\Il Bacio della Medusa 3LP\AudioDVD\VIDEO_TS\VIDEO_TS.BUP
Format : DVD Video
Format profile : Menu
File size : 12.0 KiB
Overall bit rate mode : Variable

Video
ID : 224 (0xE0)
Format : MPEG Video
Format version : Version 2
Bit rate mode : Variable
Width : 720 pixels
Height : 480 pixels
Display aspect ratio : 4:3
Frame rate : 29.970 fps
Standard : NTSC
Compression mode : Lossy

General
Complete name : E:\01 VNL\PROG\Il Bacio della Medusa 3LP\AudioDVD\VIDEO_TS\VIDEO_TS.IFO
Format : DVD Video
Format profile : Menu
File size : 12.0 KiB
Overall bit rate mode : Variable

Video
ID : 224 (0xE0)
Format : MPEG Video
Format version : Version 2
Bit rate mode : Variable
Width : 720 pixels
Height : 480 pixels
Display aspect ratio : 4:3
Frame rate : 29.970 fps
Standard : NTSC
Compression mode : Lossy

General
Complete name : E:\01 VNL\PROG\Il Bacio della Medusa 3LP\AudioDVD\VIDEO_TS\VIDEO_TS.VOB
Format : MPEG-PS
File size : 92.0 KiB
Duration : 33ms
Overall bit rate mode : Variable
Overall bit rate : 22.8 Mbps

Video
ID : 224 (0xE0)
Format : MPEG Video
Format version : Version 2
Format profile : Main@Main
Format settings, BVOP : No
Format settings, Matrix : Custom
Duration : 33ms
Bit rate mode : Variable
Maximum bit rate : 2 500 Kbps
Width : 704 pixels
Height : 480 pixels
Display aspect ratio : 4:3
Frame rate : 29.970 fps
Standard : NTSC
Color space : YUV
Chroma subsampling : 4:2:0
Bit depth : 8 bits
Scan type : Interlaced
Scan order : Top Field First
Compression mode : Lossy
Time code of first frame : 00:00:00:00
Time code source : Group of pictures header
Color primaries : BT.601 NTSC
Transfer characteristics : BT.601
Matrix coefficients : BT.601

Menu

General
Complete name : E:\01 VNL\PROG\Il Bacio della Medusa 3LP\AudioDVD\VIDEO_TS\VTS_01_0.BUP
Format : DVD Video
Format profile : Program
File size : 104 KiB
Duration : 56mn 28s
Overall bit rate mode : Variable
Overall bit rate : 251 bps

Video
ID : 224 (0xE0)
Format : MPEG Video
Format version : Version 2
Duration : 56mn 28s
Bit rate mode : Variable
Width : 720 pixels
Height : 480 pixels
Display aspect ratio : 4:3
Frame rate : 29.970 fps
Standard : NTSC
Compression mode : Lossy

Audio
ID : 0 (0x0)
Format : PCM
Channel(s) : 2 channels
Sampling rate : 0 Hz

Menu #1
Duration : 56mn 28s
00:00:00.000 : Chapter 1
00:08:54.833 : Chapter 2
00:14:17.166 : Chapter 3
00:29:11.032 : Chapter 4
00:35:59.565 : Chapter 5
00:44:21.798 : Chapter 6
00:56:28.231 : Chapter 7
List (Audio) : 0

Menu #2
Duration : 56mn 16s
00:00:00.000 : Chapter 1
00:00:38.000 : Chapter 2
00:00:45.000 : Chapter 3
00:01:12.000 : Chapter 4
00:01:18.000 : Chapter 5
00:02:03.000 : Chapter 6
00:02:11.000 : Chapter 7
00:02:22.000 : Chapter 8
00:02:27.080 : Chapter 9
00:02:30.080 : Chapter 10
00:02:57.080 : Chapter 11
00:03:00.600 : Chapter 12
00:03:01.880 : Chapter 13
List (Audio) : 0

General
Complete name : E:\01 VNL\PROG\Il Bacio della Medusa 3LP\AudioDVD\VIDEO_TS\VTS_01_0.IFO
Format : DVD Video
Format profile : Program
File size : 104 KiB
Duration : 56mn 28s
Overall bit rate mode : Variable
Overall bit rate : 251 bps

Video
ID : 224 (0xE0)
Format : MPEG Video
Format version : Version 2
Duration : 56mn 28s
Bit rate mode : Variable
Width : 720 pixels
Height : 480 pixels
Display aspect ratio : 4:3
Frame rate : 29.970 fps
Standard : NTSC
Compression mode : Lossy

Audio
ID : 0 (0x0)
Format : PCM
Channel(s) : 2 channels
Sampling rate : 0 Hz

Menu #1
Duration : 56mn 28s
00:00:00.000 : Chapter 1
00:08:54.833 : Chapter 2
00:14:17.166 : Chapter 3
00:29:11.032 : Chapter 4
00:35:59.565 : Chapter 5
00:44:21.798 : Chapter 6
00:56:28.231 : Chapter 7
List (Audio) : 0

Menu #2
Duration : 56mn 16s
00:00:00.000 : Chapter 1
00:00:38.000 : Chapter 2
00:00:45.000 : Chapter 3
00:01:12.000 : Chapter 4
00:01:18.000 : Chapter 5
00:02:03.000 : Chapter 6
00:02:11.000 : Chapter 7
00:02:22.000 : Chapter 8
00:02:27.080 : Chapter 9
00:02:30.080 : Chapter 10
00:02:57.080 : Chapter 11
00:03:00.600 : Chapter 12
00:03:01.880 : Chapter 13
List (Audio) : 0

General
Complete name : E:\01 VNL\PROG\Il Bacio della Medusa 3LP\AudioDVD\VIDEO_TS\VTS_01_0.VOB
Format : MPEG-PS
File size : 630 KiB
Duration : 33ms
Overall bit rate mode : Variable
Overall bit rate : 156 Mbps

Video
ID : 224 (0xE0)
Format : MPEG Video
Format version : Version 2
Format profile : Main@Main
Format settings, BVOP : No
Format settings, Matrix : Custom
Format settings, GOP : N=1
Duration : 33ms
Bit rate mode : Variable
Maximum bit rate : 2 500 Kbps
Width : 704 pixels
Height : 480 pixels
Display aspect ratio : 4:3
Frame rate : 29.970 fps
Standard : NTSC
Color space : YUV
Chroma subsampling : 4:2:0
Bit depth : 8 bits
Scan type : Interlaced
Scan order : Top Field First
Compression mode : Lossy
Color primaries : BT.601 NTSC
Transfer characteristics : BT.601
Matrix coefficients : BT.601

Text
ID : 189 (0xBD)-32 (0x20)
Format : RLE
Format/Info : Run-length encoding
Muxing mode : DVD-Video

Menu

General
Complete name : E:\01 VNL\PROG\Il Bacio della Medusa 3LP\AudioDVD\VIDEO_TS\VTS_01_1.VOB
Format : MPEG-PS
File size : 1 024 MiB
Duration : 30mn 10s
Overall bit rate mode : Variable
Overall bit rate : 4 744 Kbps

Video
ID : 224 (0xE0)
Format : MPEG Video
Format version : Version 2
Format profile : Main@Main
Format settings, BVOP : No
Format settings, Matrix : Custom
Duration : 30mn 10s
Bit rate mode : Variable
Bit rate : 3 625 Kbps
Maximum bit rate : 2 500 Kbps
Width : 704 pixels
Height : 480 pixels
Display aspect ratio : 4:3
Frame rate : 29.970 fps
Standard : NTSC
Color space : YUV
Chroma subsampling : 4:2:0
Bit depth : 8 bits
Scan type : Interlaced
Scan order : Top Field First
Compression mode : Lossy
Bits/(Pixel*Frame) : 0.358
Time code of first frame : 00:00:00:00
Time code source : Group of pictures header
Stream size : 783 MiB (76%)
Color primaries : BT.601 NTSC
Transfer characteristics : BT.601
Matrix coefficients : BT.601

Audio
ID : 189 (0xBD)-160 (0xA0)
Format : PCM
Format settings, Endianness : Big
Format settings, Sign : Signed
Muxing mode : DVD-Video
Duration : 30mn 10s
Bit rate mode : Constant
Bit rate : 1 024 Kbps
Channel(s) : 2 channels
Sampling rate : 32.0 KHz
Bit depth : 24 bits
Stream size : 221 MiB (22%)

Menu

General
Complete name : E:\01 VNL\PROG\Il Bacio della Medusa 3LP\AudioDVD\VIDEO_TS\VTS_01_2.VOB
Format : MPEG-PS
File size : 1 024 MiB
Overall bit rate mode : Constant

Audio
ID : 189 (0xBD)-160 (0xA0)
Format : PCM
Format settings, Endianness : Big
Format settings, Sign : Signed
Muxing mode : DVD-Video
Bit rate mode : Constant
Bit rate : 1 024 Kbps
Channel(s) : 2 channels
Sampling rate : 32.0 KHz
Bit depth : 24 bits

Menu

General
Complete name : E:\01 VNL\PROG\Il Bacio della Medusa 3LP\AudioDVD\VIDEO_TS\VTS_01_3.VOB
Format : MPEG-PS
File size : 1 024 MiB
Duration : 30mn 10s
Overall bit rate mode : Constant
Overall bit rate : 4 744 Kbps

Audio
ID : 189 (0xBD)-160 (0xA0)
Format : PCM
Format settings, Endianness : Big
Format settings, Sign : Signed
Muxing mode : DVD-Video
Duration : 30mn 10s
Bit rate mode : Constant
Bit rate : 1 024 Kbps
Channel(s) : 2 channels
Sampling rate : 32.0 KHz
Bit depth : 24 bits
Stream size : 221 MiB (22%)

Menu

General
Complete name : E:\01 VNL\PROG\Il Bacio della Medusa 3LP\AudioDVD\VIDEO_TS\VTS_01_4.VOB
Format : MPEG-PS
File size : 1 024 MiB
Overall bit rate mode : Constant

Audio
ID : 189 (0xBD)-160 (0xA0)
Format : PCM
Format settings, Endianness : Big
Format settings, Sign : Signed
Muxing mode : DVD-Video
Bit rate mode : Constant
Bit rate : 1 024 Kbps
Channel(s) : 2 channels
Sampling rate : 32.0 KHz
Bit depth : 24 bits

Menu

General
Complete name : E:\01 VNL\PROG\Il Bacio della Medusa 3LP\AudioDVD\VIDEO_TS\VTS_01_5.VOB
Format : MPEG-PS
File size : 1 008 MiB
Duration : 29mn 41s
Overall bit rate mode : Constant
Overall bit rate : 4 745 Kbps

Audio
ID : 189 (0xBD)-160 (0xA0)
Format : PCM
Format settings, Endianness : Big
Format settings, Sign : Signed
Muxing mode : DVD-Video
Duration : 29mn 41s
Bit rate mode : Constant
Bit rate : 1 024 Kbps
Channel(s) : 2 channels
Sampling rate : 32.0 KHz
Bit depth : 24 bits
Stream size : 217 MiB (22%)

Menu



Il Bacio Della Medusa - 3LP Collection (2004 - 2012) [Vinyl Rip 16/44 & mp3-320 + DVD]

Il Bacio Della Medusa - 3LP Collection (2004 - 2012) [Vinyl Rip 16/44 & mp3-320 + DVD]

Il Bacio Della Medusa - 3LP Collection (2004 - 2012) [Vinyl Rip 16/44 & mp3-320 + DVD]

Download Il Bacio Della Medusa - 3LP Collection (2004 - 2012):