Tags
Language
Tags

Island - Pictures (1977) [Japan SHM-CD 2013]

Posted By: Andi_Deris
Island - Pictures (1977) [Japan SHM-CD 2013]

Island - Pictures (1977) [Japan SHM-CD 2013]
EAC Rip | FLAC: Image+Cue+Log | 417 Mb | MP3 CBR 320 kbps | 185 Mb | Scans | 68 Mb | Time: 01:12:44
Belle Antique | BELLE-132177
Progressive Rock, Eclectic Prog

Good band which sounds pretty much canterbury like. The band format includes keys, sax, drums and vocals. The biggest influence for ISLAND definitely seems to be VdGG, and the band certainly approaches progressive rock from the darker end of the spectrum. Sometimes the influence of GENTLE GIANT gets very clear in their music.



Island - Pictures (1977) [Japan SHM-CD 2013]


Track Listing

01. Introduction (1:26)
02. Zero (6:16)
03. Pictures (16:52)
04. Helord and King / Dloreh (12:16)
05. Here and Now (12:23)
06. Empty Bottles (Bonus track) (23:31)

Produced by Claudio Fabi & Erwin Pircher

The Band

• Benjamin Jäger - lead vocals, percussion
• Güge Meier - drums, gongs, percussion
• Peter Scherer - keyboards, pedal-bass, voices crotales
• René Fisch - sax, flute, clarinet, triangle, voices

Notes

Cardboard sleeve reissue from ISLAND. Includes bonus track. Features the high-fidelity SHM-CD format (compatible with standard CD players) and remaster. Remastered By Hirobumi Kawanishi

After a single listen, I am completely in love with this album.


Exact Audio Copy V1.0 beta 3 from 29. August 2011

EAC extraction logfile from 9. May 2014, 22:05

Island / Pictures

Used drive : SONY DVD RW DRU-840A Adapter: 0 ID: 0

Read mode : Secure
Utilize accurate stream : Yes
Defeat audio cache : Yes
Make use of C2 pointers : No

Read offset correction : 6
Overread into Lead-In and Lead-Out : No
Fill up missing offset samples with silence : Yes
Delete leading and trailing silent blocks : No
Null samples used in CRC calculations : Yes
Used interface : Native Win32 interface for Win NT & 2000

Used output format : User Defined Encoder
Selected bitrate : 768 kBit/s
Quality : High
Add ID3 tag : No
Command line compressor : C:\Program Files (x86)\Exact Audio Copy\Wavpack\wavpack.exe
Additional command line options : -hlm %source% %dest%


TOC of the extracted CD

Track | Start | Length | Start sector | End sector
––––––––––––––––––––––––––––-
1 | 0:00.00 | 1:26.12 | 0 | 6461
2 | 1:26.12 | 6:16.13 | 6462 | 34674
3 | 7:42.25 | 16:52.45 | 34675 | 110619
4 | 24:34.70 | 12:16.47 | 110620 | 165866
5 | 36:51.42 | 12:23.25 | 165867 | 221616
6 | 49:14.67 | 23:31.05 | 221617 | 327446


Range status and errors

Selected range

Filename E:\FLAC\_NL+\CD18\Island - Pictures.wav

Peak level 100.0 %
Extraction speed 8.2 X
Range quality 100.0 %
Test CRC EC2E5081
Copy CRC EC2E5081
Copy OK

No errors occurred


AccurateRip summary

Track 1 accurately ripped (confidence 1) [F2F6E35C] (AR v2)
Track 2 accurately ripped (confidence 1) [087A0607] (AR v2)
Track 3 accurately ripped (confidence 1) [3B85BA44] (AR v2)
Track 4 accurately ripped (confidence 1) [408AF4AD] (AR v2)
Track 5 accurately ripped (confidence 1) [43771B40] (AR v2)
Track 6 accurately ripped (confidence 1) [3FC9FFB8] (AR v2)

All tracks accurately ripped

End of status report

–– CUETools DB Plugin V2.1.3

[CTDB TOCID: QydOMAXhRvPHxOtmw3yVDbIBN9E-] disk not present in database, Submit result: QydOMAXhRvPHxOtmw3yVDbIBN9E- has been uploaded


==== Log checksum 299A1A3566D9E1E3C7EA41D92E48F6A4511A01BA6754E67B8411C4B0F2FE3C0E ====


Many thanks to the original uploader: tatuk

SEE also:
Gentle Giant 2013 Memories Of Old Days [5CD Box Set]

Van der Graaf Generator 2013 C...) [Japan LTD (mini LP) SHM-CD]