Tags
Language
Tags

Ivano Zanenghi, L'Opera Stravagante - Baldassare Galuppi: La Scusa (2005)

Posted By: ArlegZ
Ivano Zanenghi, L'Opera Stravagante - Baldassare Galuppi: La Scusa (2005)

Ivano Zanenghi, L'Opera Stravagante - Baldassare Galuppi: La Scusa (2005)
EAC | FLAC | Image (Cue & Log) ~ 345 Mb | Total time: 70:47 | Scans included
Classical | Label: ORF | # CD 390 | Recorded: 2002

Bij Venetiaanse muziek van rond 1700 is de eerste naam die bij je opkomt: Antonio Vivaldi. Geen twijfel mogelijk. Moeilijker wordt het als je het nummer twee moet noemen: Albinoni? Marcello? Tartini? Voor luitist (en dirigent) Ivano Zaneghi was er maar één die qua roem en vaardigheden de vergelijking met Vivaldi kon doorstaan, en dat was Baldassare Galuppi (1706-1785). De verfijning in muzikale expressie en de elegante stijl van zijn wereldlijke en geestelijke composities zijn inderdaad opmerkelijk. Sommige van de stukken op deze cd bleven ongepubliceerd. De cantate 'La scusa', vermoedelijk uit de jaren 1770, is bewaard in een manuscript in de Venetiaanse Marciana bibliotheek. Dit werkje, geschreven in een stoutmoedige en sterk expressieve stijl, toont aan dat de rijpe Galuppi mee was met de vernieuwingen van zijn tijd. In de sonates, bewaard in de Uppsala bibliotheek in Zweden, bespeur je al een vleugje classicisme. Het concerto voor fagot tenslotte, schreef Galuppi oorspronkelijk voor de fluit. Maar met zijn ernstige karakter en melancholische geluid is de fagot ook erg geschikt voor deze muziek. Alt Sara Mingardo vertolkt de cantate "La Scusa" erg expressief en met veel inlevingsvermogen. Haar bewogen interpretatie van de aangrijpende aria "Trova un sol, mia bella Clori" heeft alles om een 'barok-hit' te worden. De begeleiding van het nieuwe barokensemble 'L'Opera Stravagante' is kleurrijk en gevoelig; vooral de continugroep o.l.v. luitist Ivano Zanenghi toont zich bijzonder vindingrijk. De voortreffelijke solisten in de concerto's, fagottist Sergio Azzolini en klavecinist Massimiliano Raschietti, kenden we al van opnamen met gerenommeerde Italiaanse barokensembles als Concerto Italiano en Europa Galante. Ook de twee sonates worden met veel virtuositeit en flair uitgevoerd door de leden van dit 'L'opera Stravagante', een ensemble dat we goed in het oog gaan houden. De opname, gemaakt door de Oostenrijkse omroep, heeft een warme gloed, maar helaas ook een tikkeltje te veel galm. Voor het overige is dit een must voor de liefhebbers van onbekende, maar hoogst verleidelijke barokmuziek.
–Bart Tijskens

Performer:
Sara Mingardo, alto
Sergio Azzolini, fagotto
Massimiliano Raschetti, cembalo
L'Opera Stravagante
Ivano Zanenghi, arciliuto & direttore

Track List:
"La Scusa" Cantata à Voce sola con Violini
01. Introduzione spiritoso
02. Recitativo «No, perdonami, o Clori»
03. Aria Largo parlante ed espressivo «Trova un sol, mia bella Clori»
04. Recitativo «Placati, o pastorella»
05. Aria Larghetto «Torna in quell'onda chiara»
Sonata a tre in Fa per due Violini e Basso
06. Allegro
07. Larghetto
08. Allegro
Concerto per il Fagotto solo in Si b
09. Allegro moderato
10. Largo
11. Vivace
Sonata in Sol per Flauto Traverso, Oboe e Basso continuo
12. Allegro moderato
13. Andante
14. Allegro
Concerto in Fa per Cembalo e Archi
15. Allegro ma non troppo
16. Grave
17. Presto


Exact Audio Copy V1.6 from 23. October 2020

EAC extraction logfile from 22. August 2021, 21:52

L'Opera Stravagante, Ivano Zanenghi & soli / La Scusa

Used drive : MATSHITADVD-RAM UJ8G6 Adapter: 1 ID: 0

Read mode : Secure
Utilize accurate stream : Yes
Defeat audio cache : Yes
Make use of C2 pointers : No

Read offset correction : 103
Overread into Lead-In and Lead-Out : No
Fill up missing offset samples with silence : Yes
Delete leading and trailing silent blocks : No
Null samples used in CRC calculations : Yes
Used interface : Native Win32 interface for Win NT & 2000

Used output format : User Defined Encoder
Selected bitrate : 1024 kBit/s
Quality : High
Add ID3 tag : No
Command line compressor : C:\Program Files (x86)\Exact Audio Copy\FLAC\FLAC.EXE
Additional command line options : -6 -V -T "ARTIST=%artist%" -T "TITLE=%title%" -T "ALBUM=%albumtitle%" -T "DATE=%year%" -T "TRACKNUMBER=%tracknr%" -T "GENRE=%genre%" -T "COMMENT=%comment%" -T "BAND=%albuminterpret%" -T "ALBUMARTIST=%albuminterpret%" -T "COMPOSER=%composer%" %haslyrics%–tag-from-file=LYRICS="%lyricsfile%"%haslyrics% -T "DISCNUMBER=%cdnumber%" -T "TOTALDISCS=%totalcds%" -T "TOTALTRACKS=%numtracks%" %hascover%–picture="%coverfile%"%hascover% %source% -o %dest%


TOC of the extracted CD

Track | Start | Length | Start sector | End sector
––––––––––––––––––––––––––––-
1 | 0:00.00 | 2:17.12 | 0 | 10286
2 | 2:17.12 | 0:40.01 | 10287 | 13287
3 | 2:57.13 | 8:14.11 | 13288 | 50348
4 | 11:11.24 | 2:45.51 | 50349 | 62774
5 | 13:57.00 | 5:01.43 | 62775 | 85392
6 | 18:58.43 | 2:50.40 | 85393 | 98182
7 | 21:49.08 | 4:30.08 | 98183 | 118440
8 | 26:19.16 | 3:25.34 | 118441 | 133849
9 | 29:44.50 | 5:42.34 | 133850 | 159533
10 | 35:27.09 | 5:12.09 | 159534 | 182942
11 | 40:39.18 | 3:17.49 | 182943 | 197766
12 | 43:56.67 | 7:14.19 | 197767 | 230335
13 | 51:11.11 | 2:22.01 | 230336 | 240986
14 | 53:33.12 | 3:13.51 | 240987 | 255512
15 | 56:46.63 | 4:30.05 | 255513 | 275767
16 | 61:16.68 | 5:51.25 | 275768 | 302117
17 | 67:08.18 | 3:37.36 | 302118 | 318428


Range status and errors

Selected range

Filename F:\RAT\0 - Attente UP\L'Opera Stravagante, Ivano Zanenghi & soli - La Scusa.wav

Peak level 98.8 %
Extraction speed 2.7 X
Range quality 100.0 %
Test CRC 3E4BEE19
Copy CRC 3E4BEE19
Copy OK

No errors occurred


AccurateRip summary

Track 1 accurately ripped (confidence 2) [2FB245F7] (AR v1)
Track 2 accurately ripped (confidence 2) [CBFB34DC] (AR v1)
Track 3 accurately ripped (confidence 2) [F4AC1038] (AR v1)
Track 4 accurately ripped (confidence 2) [540AA8B0] (AR v1)
Track 5 accurately ripped (confidence 2) [24550541] (AR v1)
Track 6 accurately ripped (confidence 2) [86338E88] (AR v1)
Track 7 accurately ripped (confidence 2) [7A7A767D] (AR v1)
Track 8 accurately ripped (confidence 2) [35E37D6F] (AR v1)
Track 9 accurately ripped (confidence 2) [EFAA3DFE] (AR v1)
Track 10 accurately ripped (confidence 2) [F9B150CF] (AR v1)
Track 11 accurately ripped (confidence 2) [9092D7C4] (AR v1)
Track 12 accurately ripped (confidence 2) [18F14507] (AR v1)
Track 13 accurately ripped (confidence 2) [0EE98C66] (AR v1)
Track 14 accurately ripped (confidence 2) [1995303D] (AR v1)
Track 15 accurately ripped (confidence 2) [E7FCC23B] (AR v1)
Track 16 accurately ripped (confidence 2) [8B65C900] (AR v1)
Track 17 accurately ripped (confidence 2) [0B2F3638] (AR v1)

All tracks accurately ripped

End of status report

–– CUETools DB Plugin V2.1.6

[CTDB TOCID: pBr.o87gg9FRLr0vNvCZYpcyFaA-] found
Submit result: pBr.o87gg9FRLr0vNvCZYpcyFaA- has been confirmed
Track | CTDB Status
1 | (1/1) Accurately ripped
2 | (1/1) Accurately ripped
3 | (1/1) Accurately ripped
4 | (1/1) Accurately ripped
5 | (1/1) Accurately ripped
6 | (1/1) Accurately ripped
7 | (1/1) Accurately ripped
8 | (1/1) Accurately ripped
9 | (1/1) Accurately ripped
10 | (1/1) Accurately ripped
11 | (1/1) Accurately ripped
12 | (1/1) Accurately ripped
13 | (1/1) Accurately ripped
14 | (1/1) Accurately ripped
15 | (1/1) Accurately ripped
16 | (1/1) Accurately ripped
17 | (1/1) Accurately ripped


==== Log checksum 9AB297D8DF4BC8D17643367A33E394B16ECBA828F0038469E53D7552002955D1 ====

Ivano Zanenghi, L'Opera Stravagante - Baldassare Galuppi: La Scusa (2005)

Thanks to the original releaser