Tags
Language
Tags

John Legend & The Roots - Wake Up (2010) {G.O.O.D./Columbia} **[RE-UP]**

Posted By: TestTickles
John Legend & The Roots - Wake Up (2010) {G.O.O.D./Columbia} **[RE-UP]**

John Legend & The Roots - Wake Up (2010) {G.O.O.D./Columbia}
EAC Rip | FLAC with CUE and log | scans | 392 mb
MP3 CBR 320kbps | RAR | 152 mb
Genre: R&B, soul, hip-hop, rap

Wake Up is the 2010 collaborative album between American singer John Legend and American hip-hop band The Roots, who serve as Legend's backing group on this release. This was their only collaboration, released on the G.O.O.D./Columbia labels on 21 September, 2010. This would lead to becoming the Best R&B album in the 2010 Grammy awards.

John Legend & The Roots - Wake Up (2010) {G.O.O.D./Columbia} **[RE-UP]**

1. Hard Times (5:17)
2. Compared To What (6:27)
3. Wake Up Everybody (4:25)
4. Our Generation (The Hope Of The World) (3:16)
5. Little Ghetto Boy (Prelude) (1:59)
6. Little Ghetto Boy (5:27)
7. Hang On In There (7:16)
8. Humanity (Love The Way It Should Be) (3:50)
9. Wholy Holy (5:51)
10. I Can't Write Left Handed (11:45)
11. I Wish I Knew How It Would Feel To Be Free (2:43)
12. Shine (4:44)

John Legend-vocals, piano
Ahmir "?uestlove" Thompson-drums
Tariq "Black Thought" Trotter-rap (tracks 1, 6)
James Poyser-piano, keyboards
Captain Kirk Douglas-guitar
Owen Biddle-bass

Melanie Fiona-vocals (track 3)
Lonnie "Common" Lynn Jr.-rap (track 3)
Corey "CL Smooth" Penn Jr.-vocals (track 4)
Malik Yusef-vocals (track 5)

Produced by Ahmir "?uestlove" Thompson, James Poyser & John Legend
All songs mixed by Jimmy Douglas
Assisted by Maki Suzuki & Darren Moore
All songs mastered by Dave Kutch

John Legend & The Roots - Wake Up (2010) {G.O.O.D./Columbia} **[RE-UP]**


Exact Audio Copy V1.1 from 23. June 2015

EAC extraction logfile from 30. October 2016, 9:47

John Legend & The Roots / Wake Up

Used drive : TEAC DVD-ROM DV-28SW Adapter: 1 ID: 0

Read mode : Secure
Utilize accurate stream : Yes
Defeat audio cache : Yes
Make use of C2 pointers : No

Read offset correction : 6
Overread into Lead-In and Lead-Out : No
Fill up missing offset samples with silence : Yes
Delete leading and trailing silent blocks : No
Null samples used in CRC calculations : Yes
Used interface : Native Win32 interface for Win NT & 2000
Gap handling : Appended to previous track

Used output format : Internal WAV Routines
Sample format : 44.100 Hz; 16 Bit; Stereo


TOC of the extracted CD

Track | Start | Length | Start sector | End sector
––––––––––––––––––––––––––––-
1 | 0:00.00 | 5:16.14 | 0 | 23713
2 | 5:16.14 | 6:26.65 | 23714 | 52728
3 | 11:43.04 | 4:24.65 | 52729 | 72593
4 | 16:07.69 | 3:15.67 | 72594 | 87285
5 | 19:23.61 | 1:58.46 | 87286 | 96181
6 | 21:22.32 | 5:26.15 | 96182 | 120646
7 | 26:48.47 | 7:15.28 | 120647 | 153299
8 | 34:04.00 | 3:49.29 | 153300 | 170503
9 | 37:53.29 | 5:50.21 | 170504 | 196774
10 | 43:43.50 | 11:44.12 | 196775 | 249586
11 | 55:27.62 | 2:42.65 | 249587 | 261801
12 | 58:10.52 | 4:43.62 | 261802 | 283088


Track 1

Filename C:\My Documents\My FLAC\John Legend, The Roots - Wake Up (2010) [FLAC]\01 - Hard Times.wav

Pre-gap length 0:00:02.00

Peak level 98.8 %
Extraction speed 2.8 X
Track quality 100.0 %
Test CRC 9988DB61
Copy CRC 9988DB61
Accurately ripped (confidence 72) [67B69FDD] (AR v2)
Copy OK

Track 2

Filename C:\My Documents\My FLAC\John Legend & The Roots - Wake Up (2010) [FLAC]\02 - Compared To What.wav

Peak level 98.8 %
Extraction speed 3.4 X
Track quality 100.0 %
Test CRC 0822A127
Copy CRC 0822A127
Accurately ripped (confidence 71) [C1B7A863] (AR v2)
Copy OK

Track 3

Filename C:\My Documents\My FLAC\John Legend & The Roots - Wake Up (2010) [FLAC]\03 - Wake Up Everybody.wav

Peak level 100.0 %
Extraction speed 3.5 X
Track quality 100.0 %
Test CRC 1344A1C9
Copy CRC 1344A1C9
Accurately ripped (confidence 72) [BDF1B9CA] (AR v2)
Copy OK

Track 4

Filename C:\My Documents\My FLAC\John Legend & The Roots - Wake Up (2010) [FLAC]\04 - Our Generation (The Hope Of The World).wav

Peak level 95.8 %
Extraction speed 2.9 X
Track quality 99.9 %
Test CRC 91903188
Copy CRC 91903188
Accurately ripped (confidence 72) [A7FDD1F1] (AR v2)
Copy OK

Track 5

Filename C:\My Documents\My FLAC\John Legend & The Roots - Wake Up (2010) [FLAC]\05 - Little Ghetto Boy (Prelude).wav

Peak level 100.0 %
Extraction speed 3.3 X
Track quality 100.0 %
Test CRC 67F598FA
Copy CRC 67F598FA
Accurately ripped (confidence 72) [F61DF647] (AR v2)
Copy OK

Track 6

Filename C:\My Documents\My FLAC\John Legend & The Roots - Wake Up (2010) [FLAC]\06 - Little Ghetto Boy.wav

Peak level 98.8 %
Extraction speed 4.1 X
Track quality 100.0 %
Test CRC 6BECD608
Copy CRC 6BECD608
Accurately ripped (confidence 72) [42286F0D] (AR v2)
Copy OK

Track 7

Filename C:\My Documents\My FLAC\John Legend & The Roots - Wake Up (2010) [FLAC]\07 - Hang On In There.wav

Peak level 98.8 %
Extraction speed 4.5 X
Track quality 100.0 %
Test CRC 2153A162
Copy CRC 2153A162
Accurately ripped (confidence 72) [94DC2960] (AR v2)
Copy OK

Track 8

Filename C:\My Documents\My FLAC\John Legend & The Roots - Wake Up (2010) [FLAC]\08 - Humanity (Love The Way It Should Be).wav

Peak level 98.9 %
Extraction speed 3.7 X
Track quality 99.9 %
Test CRC 7761C0F4
Copy CRC 7761C0F4
Accurately ripped (confidence 72) [81AB83AA] (AR v2)
Copy OK

Track 9

Filename C:\My Documents\My FLAC\John Legend & The Roots - Wake Up (2010) [FLAC]\09 - Wholy Holy.wav

Peak level 97.4 %
Extraction speed 4.3 X
Track quality 99.9 %
Test CRC 39490768
Copy CRC 39490768
Accurately ripped (confidence 73) [DF335103] (AR v2)
Copy OK

Track 10

Filename C:\My Documents\My FLAC\John Legend & The Roots - Wake Up (2010) [FLAC]\10 - I Can't Write Left Handed.wav

Peak level 100.0 %
Extraction speed 5.1 X
Track quality 99.9 %
Test CRC 42193010
Copy CRC 42193010
Accurately ripped (confidence 71) [258032DA] (AR v2)
Copy OK

Track 11

Filename C:\My Documents\My FLAC\John Legend & The Roots - Wake Up (2010) [FLAC]\11 - I Wish I Knew How It Would Feel To Be Free.wav

Pre-gap length 0:00:00.74

Peak level 98.8 %
Extraction speed 4.8 X
Track quality 100.0 %
Test CRC A97FC660
Copy CRC A97FC660
Accurately ripped (confidence 72) [ABA64F7C] (AR v2)
Copy OK

Track 12

Filename C:\My Documents\My FLAC\John Legend & The Roots - Wake Up (2010) [FLAC]\12 - Shine.wav

Peak level 100.0 %
Extraction speed 2.6 X
Track quality 99.9 %
Test CRC 7CD8BAA9
Copy CRC 7CD8BAA9
Accurately ripped (confidence 69) [11ECBAD3] (AR v2)
Copy OK


All tracks accurately ripped

No errors occurred

End of status report

–– CUETools DB Plugin V2.1.6

[CTDB TOCID: 4aQx8VUJmYdRFzazlpJaLaqEyIc-] found
Submit result: 4aQx8VUJmYdRFzazlpJaLaqEyIc- has been confirmed
Track | CTDB Status
1 | (185/186) Accurately ripped
2 | (185/186) Accurately ripped
3 | (185/186) Accurately ripped
4 | (185/186) Accurately ripped
5 | (185/186) Accurately ripped
6 | (185/186) Accurately ripped
7 | (184/186) Accurately ripped
8 | (184/186) Accurately ripped
9 | (183/186) Accurately ripped
10 | (182/186) Accurately ripped
11 | (181/186) Accurately ripped
12 | (181/186) Accurately ripped


==== Log checksum B5AD5A6FAB37967E12C02B4C639CEE534B64949E055A1F67DFBEC7698013B074 ====


John Legend & The Roots - Wake Up (2010) {G.O.O.D./Columbia} **[RE-UP]**