Subcategories
Tags
Language
Tags

John Williams & The Boston Pops Orchestra - The Spielberg/Williams Collaboration (1991) {Sony Classical} **[RE-UP]**

Posted By: TestTickles
John Williams & The Boston Pops Orchestra - The Spielberg/Williams Collaboration (1991) {Sony Classical} **[RE-UP]**

John Williams & The Boston Pops Orchestra - The Spielberg/Williams Collaboration (1991) {Sony Classical}
EAC Rip | FLAC with CUE and log | scans | 308 mb
MP3 CBR 320kbps | RAR | 166 mb
Genre: classical

The Spielberg/Williams Collaboration is a 1991 album by John Williams & The Boston Pops Orchestra. It consists of Williams conducting music that were part of films directed by Spielberg, many of which are standards for each generation. This comes from Sony Classical.

John Williams & The Boston Pops Orchestra - The Spielberg/Williams Collaboration (1991) {Sony Classical} **[RE-UP]**

1. Raiders Of The Lost Ark: The Raiders March (5:11)
2. Always: Theme (5:31)
3. E.T.: Adventures On Earth (9:47)
4. Sugarland Express: Theme (3:36)
5. Jaws: Theme (2:57)
6. Jaws: Out To Sea/The Shark Cage Fugue (4:23)
7. Empire Of The Sun: Exsultate Justi (4:57)
8. Indiana Jones And The Temple Of Doom: Parade Of The Slave Children (4:52)
9. E.T.: Over The Moon (2:11)
10. 1941: March (4:12)
11. Empire Of The Sun: Cadillac Of The Skies (4:59)
12. Indiana Jones And The Last Crusade: Scherzo For Motorcycle And Orchestra (2:48)
13. Close Encounters Of The Third Kind: Excerpts (9:47)

Toots Thielemans-harmonica (track 4)
American Boy Choir (tracks 7, 11 & 13)
Tanglewood Festival Chorus (tracks 7, 11 & 13)

Produced by Thomas Z. Shepard
Balance (engineer): Bud Graham

John Williams & The Boston Pops Orchestra - The Spielberg/Williams Collaboration (1991) {Sony Classical} **[RE-UP]**


EAC extraction logfile from 4. March 2017, 11:58 for CD
John Williams & The Boston Pops Orchestra / The Spielberg/Williams Collaboration

Used drive : TSSTcorpDVD+-RW TS-H653B Adapter: 2 ID: 0
Read mode : Secure with NO C2, accurate stream, disable cache
Read offset correction : 6
Overread into Lead-In and Lead-Out : No

Used output format : Internal WAV Routines
44.100 Hz; 16 Bit; Stereo

Other options :
Fill up missing offset samples with silence : Yes
Delete leading and trailing silent blocks : No
Native Win32 interface for Win NT & 2000


Track 1
Filename C:\Documents and Settings\Desktop\John Williams & The Boston Pops Orchestra - The Spielberg, Williams Collaboration (1991) [FLAC] {Sony Classical}\01 - Raiders Of The Lost Ark- The Raiders' March.wav

Pre-gap length 0:00:02.00

Peak level 97.7 %
Track quality 100.0 %
Test CRC FD0F8516
Copy CRC FD0F8516
Copy OK

Track 2
Filename C:\Documents and Settings\Desktop\John Williams & The Boston Pops Orchestra - The Spielberg, Williams Collaboration (1991) [FLAC] {Sony Classical}\02 - Always- Theme.wav

Pre-gap length 0:00:00.49

Peak level 34.4 %
Track quality 100.0 %
Test CRC 0947E6D2
Copy CRC 0947E6D2
Copy OK

Track 3
Filename C:\Documents and Settings\Desktop\John Williams & The Boston Pops Orchestra - The Spielberg, Williams Collaboration (1991) [FLAC] {Sony Classical}\03 - E.T.- Adventures On Earth.wav

Peak level 87.2 %
Track quality 100.0 %
Test CRC 09AE37F8
Copy CRC 09AE37F8
Copy OK

Track 4
Filename C:\Documents and Settings\Desktop\John Williams & The Boston Pops Orchestra - The Spielberg, Williams Collaboration (1991) [FLAC] {Sony Classical}\04 - Sugarland Express- Theme.wav

Pre-gap length 0:00:00.78

Peak level 60.8 %
Track quality 100.0 %
Test CRC 75FF88C5
Copy CRC 75FF88C5
Copy OK

Track 5
Filename C:\Documents and Settings\Desktop\John Williams & The Boston Pops Orchestra - The Spielberg, Williams Collaboration (1991) [FLAC] {Sony Classical}\05 - Jaws- Theme.wav

Pre-gap length 0:00:00.93

Peak level 97.7 %
Track quality 100.0 %
Test CRC 357B70CB
Copy CRC 357B70CB
Copy OK

Track 6
Filename C:\Documents and Settings\Desktop\John Williams & The Boston Pops Orchestra - The Spielberg, Williams Collaboration (1991) [FLAC] {Sony Classical}\06 - Jaws- Out To Sea,The Shark Cage Fugue.wav

Peak level 77.7 %
Track quality 100.0 %
Test CRC E373D576
Copy CRC E373D576
Copy OK

Track 7
Filename C:\Documents and Settings\Desktop\John Williams & The Boston Pops Orchestra - The Spielberg, Williams Collaboration (1991) [FLAC] {Sony Classical}\07 - Empire Of The Sun- Exsultate Justi.wav

Pre-gap length 0:00:02.37

Peak level 71.6 %
Track quality 100.0 %
Test CRC 2031A1D6
Copy CRC 2031A1D6
Copy OK

Track 8
Filename C:\Documents and Settings\Desktop\John Williams & The Boston Pops Orchestra - The Spielberg, Williams Collaboration (1991) [FLAC] {Sony Classical}\08 - Indiana Jones And The Temple Of Doom- Parade Of The Slave Children.wav

Peak level 77.7 %
Track quality 100.0 %
Test CRC 72ACC8D6
Copy CRC 72ACC8D6
Copy OK

Track 9
Filename C:\Documents and Settings\Desktop\John Williams & The Boston Pops Orchestra - The Spielberg, Williams Collaboration (1991) [FLAC] {Sony Classical}\09 - E.T.- Over The Moon.wav

Pre-gap length 0:00:00.57

Peak level 36.5 %
Track quality 99.8 %
Test CRC 9965F0A0
Copy CRC 9965F0A0
Copy OK

Track 10
Filename C:\Documents and Settings\Desktop\John Williams & The Boston Pops Orchestra - The Spielberg, Williams Collaboration (1991) [FLAC] {Sony Classical}\10 - 1941- March.wav

Pre-gap length 0:00:00.20

Peak level 96.5 %
Track quality 100.0 %
Test CRC F1F46937
Copy CRC F1F46937
Copy OK

Track 11
Filename C:\Documents and Settings\Desktop\John Williams & The Boston Pops Orchestra - The Spielberg, Williams Collaboration (1991) [FLAC] {Sony Classical}\11 - Empire Of The Sun- Cadillac Of The Skies.wav

Pre-gap length 0:00:01.13

Peak level 76.2 %
Track quality 99.9 %
Test CRC F169BA9C
Copy CRC F169BA9C
Copy OK

Track 12
Filename C:\Documents and Settings\Desktop\John Williams & The Boston Pops Orchestra - The Spielberg, Williams Collaboration (1991) [FLAC] {Sony Classical}\12 - Indiana Jones And The Last Crusade- Scherzo For Motorcycle And Orchestra.wav

Pre-gap length 0:00:00.60

Peak level 97.0 %
Track quality 100.0 %
Test CRC 9F17643D
Copy CRC 9F17643D
Copy OK

Track 13
Filename C:\Documents and Settings\Desktop\John Williams & The Boston Pops Orchestra - The Spielberg, Williams Collaboration (1991) [FLAC] {Sony Classical}\13 - Close Encounters Of The Third Kind- Excerpts.wav

Pre-gap length 0:00:01.20

Peak level 97.7 %
Track quality 99.9 %
Test CRC 3FA5405E
Copy CRC 3FA5405E
Copy OK

No errors occured


End of status report


John Williams & The Boston Pops Orchestra - The Spielberg/Williams Collaboration (1991) {Sony Classical} **[RE-UP]**


(If you'd like to hear another album by John Williams & The Boston Pops Orchestra, try out It Don't Mean A Thing If It Ain't Got That Swing!, also released by Sony Classical.)