Subcategories
Tags
Language
Tags

Jeremiah Cymerman - In Memory Of The Labyrinth System (2008) {Tzadik} **[RE-UP]**

Posted By: TestTickles
Jeremiah Cymerman - In Memory Of The Labyrinth System (2008) {Tzadik} **[RE-UP]**

Jeremiah Cymerman - In Memory Of The Labyrinth System (2008) {Tzadik}
EAC Rip | FLAC with CUE and log | scans | 224 mb
MP3 CBR 320kbps | RAR | 99 mb
Genre: experimental, jazz

In Memory Of The Labyrinth System is the debut album from American clarinetist Jeremiah Cymerman. This was self-recorded and created, released on John Zorn's Tzadik label. It is a recording that does more with a clarinet than what you believe it can do.

Jeremiah Cymerman - In Memory Of The Labyrinth System (2008) {Tzadik} **[RE-UP]**

1. Lateral Semicircular Canal (2:50)
2. Posterior Canal (6:57)
3. Superior Canal (2:47)
4. Conjoined Limb Of Superior And Posterior Canals (1:05)
5. Sinus Utriculi Posterior (0:37)
6. Ductus Endolymphaticus (0:31)
7. Canalis Utriculosaccularis (0:54)
8. Nerve To Ampulla Of Superior Canal (12:32)
9. Nerve To Ampulla Of Lateral Canal (3:34)
10. Ending Of Nerve In Recessus Utriculi (9:01)

Jeremiah Cymerman-clarinet

Produced, recorded, edited & mixed by Jeremiah Cymerman
Additional mix: Christopher Hoffman
Associate Producer: Kazunori Sugiyama
Executive Producer: John Zorn
Mastered by Scott Hull

Jeremiah Cymerman - In Memory Of The Labyrinth System (2008) {Tzadik} **[RE-UP]**


Exact Audio Copy V1.1 from 23. June 2015

EAC extraction logfile from 22. February 2017, 13:36

Jeremiah Cymerman / In Memory Of The Labyrinth System

Used drive : TEAC DVD-ROM DV-28SW Adapter: 1 ID: 0

Read mode : Secure
Utilize accurate stream : Yes
Defeat audio cache : Yes
Make use of C2 pointers : No

Read offset correction : 6
Overread into Lead-In and Lead-Out : No
Fill up missing offset samples with silence : Yes
Delete leading and trailing silent blocks : No
Null samples used in CRC calculations : Yes
Used interface : Native Win32 interface for Win NT & 2000
Gap handling : Appended to previous track

Used output format : Internal WAV Routines
Sample format : 44.100 Hz; 16 Bit; Stereo


TOC of the extracted CD

Track | Start | Length | Start sector | End sector
––––––––––––––––––––––––––––-
1 | 0:00.00 | 2:50.42 | 0 | 12791
2 | 2:50.42 | 6:56.26 | 12792 | 44017
3 | 9:46.68 | 2:47.22 | 44018 | 56564
4 | 12:34.15 | 1:05.19 | 56565 | 61458
5 | 13:39.34 | 0:37.19 | 61459 | 64252
6 | 14:16.53 | 0:30.43 | 64253 | 66545
7 | 14:47.21 | 0:55.58 | 66546 | 70728
8 | 15:43.04 | 12:32.41 | 70729 | 127169
9 | 28:15.45 | 3:36.71 | 127170 | 143440
10 | 31:52.41 | 9:01.22 | 143441 | 184037


Track 1

Filename C:\My Documents\My FLAC\Jeremiah Cymerman - In Memory Of The Labyrinth System (2008) [FLAC] {Tzadik}\01 - Lateral Semicircular Canal.wav

Pre-gap length 0:00:02.00

Peak level 97.7 %
Extraction speed 1.1 X
Track quality 100.0 %
Test CRC 89717E4D
Copy CRC 89717E4D
Accurately ripped (confidence 3) [E7FB1018] (AR v1)
Copy OK

Track 2

Filename C:\My Documents\My FLAC\Jeremiah Cymerman - In Memory Of The Labyrinth System (2008) [FLAC] {Tzadik}\02 - Posterior Canal.wav

Peak level 93.3 %
Extraction speed 1.2 X
Track quality 99.9 %
Test CRC 242FE196
Copy CRC 242FE196
Accurately ripped (confidence 3) [1F176127] (AR v1)
Copy OK

Track 3

Filename C:\My Documents\My FLAC\Jeremiah Cymerman - In Memory Of The Labyrinth System (2008) [FLAC] {Tzadik}\03 - Superior Canal.wav

Peak level 93.3 %
Extraction speed 1.1 X
Track quality 99.9 %
Test CRC 492511BA
Copy CRC 492511BA
Accurately ripped (confidence 3) [2C62C23B] (AR v1)
Copy OK

Track 4

Filename C:\My Documents\My FLAC\Jeremiah Cymerman - In Memory Of The Labyrinth System (2008) [FLAC] {Tzadik}\04 - Conjoined Limb Of Superior And Posterior Canals.wav

Peak level 93.3 %
Extraction speed 1.1 X
Track quality 100.0 %
Test CRC C4467A91
Copy CRC C4467A91
Accurately ripped (confidence 3) [CDD38A0B] (AR v1)
Copy OK

Track 5

Filename C:\My Documents\My FLAC\Jeremiah Cymerman - In Memory Of The Labyrinth System (2008) [FLAC] {Tzadik}\05 - Sinus Utriculi Posterior.wav

Peak level 93.3 %
Extraction speed 0.9 X
Track quality 100.0 %
Test CRC 7DAD4A55
Copy CRC 7DAD4A55
Accurately ripped (confidence 3) [2080B7B7] (AR v1)
Copy OK

Track 6

Filename C:\My Documents\My FLAC\Jeremiah Cymerman - In Memory Of The Labyrinth System (2008) [FLAC] {Tzadik}\06 - Ductus Endolymphatics.wav

Peak level 93.3 %
Extraction speed 0.7 X
Track quality 100.0 %
Test CRC 0687C457
Copy CRC 0687C457
Accurately ripped (confidence 3) [913B9FE1] (AR v1)
Copy OK

Track 7

Filename C:\My Documents\My FLAC\Jeremiah Cymerman - In Memory Of The Labyrinth System (2008) [FLAC] {Tzadik}\07 - Canalis Utriculosaccularis.wav

Peak level 93.3 %
Extraction speed 0.7 X
Track quality 99.8 %
Test CRC 0BCAC1FB
Copy CRC 0BCAC1FB
Accurately ripped (confidence 3) [23985249] (AR v1)
Copy OK

Track 8

Filename C:\My Documents\My FLAC\Jeremiah Cymerman - In Memory Of The Labyrinth System (2008) [FLAC] {Tzadik}\08 - Nerve To Ampulla Of Superior Canal.wav

Pre-gap length 0:00:01.18

Peak level 93.3 %
Extraction speed 1.9 X
Track quality 100.0 %
Test CRC E534C60E
Copy CRC E534C60E
Accurately ripped (confidence 3) [01F0E3C2] (AR v1)
Copy OK

Track 9

Filename C:\My Documents\My FLAC\Jeremiah Cymerman - In Memory Of The Labyrinth System (2008) [FLAC] {Tzadik}\09 - Nerve To Ampulla Of Lateral Canal.wav

Peak level 93.3 %
Extraction speed 1.9 X
Track quality 100.0 %
Test CRC 334024F4
Copy CRC 334024F4
Accurately ripped (confidence 3) [23C9B70C] (AR v1)
Copy OK

Track 10

Filename C:\My Documents\My FLAC\Jeremiah Cymerman - In Memory Of The Labyrinth System (2008) [FLAC] {Tzadik}\10 - Ending Of Nerve In Recessus Utriculi.wav

Pre-gap length 0:00:02.36

Peak level 93.3 %
Extraction speed 2.1 X
Track quality 99.9 %
Test CRC CF9CE994
Copy CRC CF9CE994
Accurately ripped (confidence 3) [F7562FEB] (AR v1)
Copy OK


All tracks accurately ripped

No errors occurred

End of status report

–– CUETools DB Plugin V2.1.6

[CTDB TOCID: 9NmKVAjuZrPXia4ihkjY5OXVLPs-] disk not present in database
Submit result: 9NmKVAjuZrPXia4ihkjY5OXVLPs- has been uploaded


==== Log checksum 329B58D799224F1F8D2AC4F755B373E6DC17141EA2F6DD82E8BB28A6B9505F6A ====


Jeremiah Cymerman - In Memory Of The Labyrinth System (2008) {Tzadik} **[RE-UP]**