Tags
Language
Tags

Jason Marsalis - Music In Motion (2000) {Basin Street} **[RE-UP]**

Posted By: TestTickles
Jason Marsalis - Music In Motion (2000) {Basin Street} **[RE-UP]**

Jason Marsalis - Music In Motion (2000) {Basin Street}
EAC Rip | FLAC with CUE and log | scans | 426 mb
MP3 CBR 320kbps | RAR | 191 mb
Genre: jazz

Music In Motion is the 2000 album by American drummer Jason Marsalis. Part of the Marsalis musical family of New Orleans, this was released by Basin Street Records.

Jason Marsalis - Music In Motion (2000) {Basin Street} **[RE-UP]**

01. There's A Thing Called Rhythm
02. Marakatu de Modernizar
03. The Sweeper
04. On The First Occasion
05. The Steepistician
06. Discipline Strikes Again
07. Treasure
08. It Came From The Planet Of Nebtoon
09. Short Story #1
10. Seven-Ay Pocky Way
11. (Untitled) (Bonus Track)

Jason Marsalis-drums, percussion
John Ellis-tenor saxophone
Derek Douget-alto & soprano saxophones
Jonathan Lefcoski-piano
Peter Harris-bass

Produced by Jason Marsalis
Engineered by Steve Reynolds
Mastered by Parker Dinkins

Jason Marsalis - Music In Motion (2000) {Basin Street} **[RE-UP]**


EAC extraction logfile from 26. June 2017, 4:26 for CD
Jason Marsalis / Music In Motion

Used drive : TSSTcorpDVD+-RW TS-H653B Adapter: 2 ID: 0
Read mode : Secure with NO C2, accurate stream, disable cache
Read offset correction : 6
Overread into Lead-In and Lead-Out : No

Used output format : Internal WAV Routines
44.100 Hz; 16 Bit; Stereo

Other options :
Fill up missing offset samples with silence : Yes
Delete leading and trailing silent blocks : No
Native Win32 interface for Win NT & 2000


Track 1
Filename C:\cuntfist\FLAC\Jason Marsalis - Music In Motion (2000) [FLAC] {Basin Street}\01 - There's A Thing Called Rhythm.wav

Pre-gap length 0:00:02.00

Peak level 100.0 %
Track quality 100.0 %
Test CRC 2CF0DC85
Copy CRC 2CF0DC85
Copy OK

Track 2
Filename C:\cuntfist\FLAC\Jason Marsalis - Music In Motion (2000) [FLAC] {Basin Street}\02 - Marakatu de Modernizar.wav

Pre-gap length 0:00:02.57

Peak level 99.2 %
Track quality 100.0 %
Test CRC 1277C382
Copy CRC 1277C382
Copy OK

Track 3
Filename C:\cuntfist\FLAC\Jason Marsalis - Music In Motion (2000) [FLAC] {Basin Street}\03 - The Sweeper.wav

Pre-gap length 0:00:28.73

Peak level 98.2 %
Track quality 99.9 %
Test CRC 768CA50F
Copy CRC 768CA50F
Copy OK

Track 4
Filename C:\cuntfist\FLAC\Jason Marsalis - Music In Motion (2000) [FLAC] {Basin Street}\04 - On The First Occasion.wav

Pre-gap length 0:00:03.06

Peak level 97.8 %
Track quality 100.0 %
Test CRC 816596E8
Copy CRC 816596E8
Copy OK

Track 5
Filename C:\cuntfist\FLAC\Jason Marsalis - Music In Motion (2000) [FLAC] {Basin Street}\05 - The Steepistician.wav

Pre-gap length 0:00:02.33

Peak level 99.2 %
Track quality 100.0 %
Test CRC 193A00C7
Copy CRC 193A00C7
Copy OK

Track 6
Filename C:\cuntfist\FLAC\Jason Marsalis - Music In Motion (2000) [FLAC] {Basin Street}\06 - Discipline Strikes Again.wav

Pre-gap length 0:00:27.73

Peak level 100.0 %
Track quality 100.0 %
Test CRC 3F3D0352
Copy CRC 3F3D0352
Copy OK

Track 7
Filename C:\cuntfist\FLAC\Jason Marsalis - Music In Motion (2000) [FLAC] {Basin Street}\07 - Treasure.wav

Pre-gap length 0:00:02.40

Peak level 99.3 %
Track quality 100.0 %
Test CRC 33F05DB1
Copy CRC 33F05DB1
Copy OK

Track 8
Filename C:\cuntfist\FLAC\Jason Marsalis - Music In Motion (2000) [FLAC] {Basin Street}\08 - It Came From The Planet Of Nebtoon.wav

Peak level 99.8 %
Track quality 100.0 %
Test CRC A9034AB2
Copy CRC A9034AB2
Copy OK

Track 9
Filename C:\cuntfist\FLAC\Jason Marsalis - Music In Motion (2000) [FLAC] {Basin Street}\09 - Short Story #1.wav

Pre-gap length 0:00:02.53

Peak level 98.4 %
Track quality 100.0 %
Test CRC B23FFC48
Copy CRC B23FFC48
Copy OK

Track 10
Filename C:\cuntfist\FLAC\Jason Marsalis - Music In Motion (2000) [FLAC] {Basin Street}\10 - Seven-Ay Pocky Way.wav

Pre-gap length 0:00:25.29

Peak level 100.0 %
Track quality 100.0 %
Test CRC 59477870
Copy CRC 59477870
Copy OK

Track 11
Filename C:\cuntfist\FLAC\Jason Marsalis - Music In Motion (2000) [FLAC] {Basin Street}\11 - (Untitled).wav

Pre-gap length 0:01:13.29

Peak level 85.7 %
Track quality 100.0 %
Test CRC FC3AF3A4
Copy CRC FC3AF3A4
Copy OK

No errors occured


End of status report


Jason Marsalis - Music In Motion (2000) {Basin Street} **[RE-UP]**