Subcategories
Tags
Language
Tags

Jack Teagarden & His Sextet - Mis'ry And The Blues (1961) {2003 Verve Music Group} **[RE-UP]**

Posted By: TestTickles
Jack Teagarden & His Sextet - Mis'ry And The Blues (1961) {2003 Verve Music Group} **[RE-UP]**

Jack Teagarden & His Sextet - Mis'ry And The Blues (1961) {2003 Verve Music Group}
EAC Rip | FLAC with CUE and log | scans | 241 mb
MP3 CBR 320kbps | RAR | 96 mb
Genre: jazz

Mis'ry And The Blues is the 1961 album by Jack Teagarden & His Sextet. Originally released on Verve, this was released by the Verve Music Group on 9 September, 2003.
I've been familiar with this recording since it's original issue in the early 60s. The sound is superb. This is a chance to hear one of the GREAT sounds in Jazz, that of Jack Teagarden's trombone, in modern fidelity and in all its splendor…PLUS you get some of T's singing, and one of the classic versions of Basin Street Blues, a Teagarden specialty. The band is T's working unit at the time and they are thoroughly professional. The standout sidemen are Don Ewell, a superb stride pianist, and Don Goldie, the trumpeter. The rhythm section swings throughout. For me this recording is a "must have".

Jack Teagarden & His Sextet - Mis'ry And The Blues (1961) {2003 Verve Music Group} **[RE-UP]**

01. Don't Tell A Man About His Woman
02. Basin Street Blues
03. Froggie Moore Blues
04. I Don't Want To Miss Mississippi
05. It's All In Your Mind
06. Mis'ry And The Blues
07. Dixieland One-Step
08. Love Lies
09. Afternoon In August
10. Peaceful Valley

–-
Jack Teagarden-trombone, vocals
Don Goldie-trumpet
Henry Cuesta-clarinet
Don Ewell-piano
Stan Puls-bass
Barrett Deems-drums
Track 8: Add Shay Torrent-organ

Recorded 18-22 June, 1961 in Chicago

Produced by Creed Taylor
CD mastered by Bob Irwin and Jayme Pieruzzi at Sundazed Studios, Coxsackie, NY

EAC extraction logfile from 13. September 2006, 5:28 for CD
Jack Teagarden and His Sextet / Mis'ry And The Blues

Used drive : LITE-ON DVDRW SOHW-1633S Adapter: 0 ID: 0
Read mode : Secure with NO C2, accurate stream, disable cache
Read offset correction : 12
Overread into Lead-In and Lead-Out : No

Used output format : Internal WAV Routines
44.100 Hz; 16 Bit; Stereo

Other options :
Fill up missing offset samples with silence : Yes
Delete leading and trailing silent blocks : No
Installed external ASPI interface


Track 1
Filename D:\FLAC\Jack Teagarden and His Sextet - Mis'ry And The Blues (1961) [FLAC] {2003 Verve Music Group}\01 - Don't Tell A Man About His Woman.wav

Pre-gap length 0:00:02.00

Peak level 98.8 %
Track quality 99.9 %
Test CRC C3A88FD2
Copy CRC C3A88FD2
Copy OK

Track 2
Filename D:\FLAC\Jack Teagarden and His Sextet - Mis'ry And The Blues (1961) [FLAC] {2003 Verve Music Group}\02 - Basin Street Blues.wav

Pre-gap length 0:00:03.29

Peak level 98.8 %
Track quality 99.9 %
Test CRC 5123BF52
Copy CRC 5123BF52
Copy OK

Track 3
Filename D:\FLAC\Jack Teagarden and His Sextet - Mis'ry And The Blues (1961) [FLAC] {2003 Verve Music Group}\03 - Froggie Moore Blues.wav

Pre-gap length 0:00:03.26

Peak level 98.8 %
Track quality 100.0 %
Test CRC 9B471BBE
Copy CRC 9B471BBE
Copy OK

Track 4
Filename D:\FLAC\Jack Teagarden and His Sextet - Mis'ry And The Blues (1961) [FLAC] {2003 Verve Music Group}\04 - I Don't Want To Miss Mississippi.wav

Pre-gap length 0:00:03.30

Peak level 98.8 %
Track quality 100.0 %
Test CRC 12A41E89
Copy CRC 12A41E89
Copy OK

Track 5
Filename D:\FLAC\Jack Teagarden and His Sextet - Mis'ry And The Blues (1961) [FLAC] {2003 Verve Music Group}\05 - It's All In Your Mind.wav

Pre-gap length 0:00:03.32

Peak level 98.8 %
Track quality 100.0 %
Test CRC CEB4B4E3
Copy CRC CEB4B4E3
Copy OK

Track 6
Filename D:\FLAC\Jack Teagarden and His Sextet - Mis'ry And The Blues (1961) [FLAC] {2003 Verve Music Group}\06 - Mis'ry And The Blues.wav

Pre-gap length 0:00:03.58

Peak level 98.8 %
Track quality 100.0 %
Test CRC 7E66D938
Copy CRC 7E66D938
Copy OK

Track 7
Filename D:\FLAC\Jack Teagarden and His Sextet - Mis'ry And The Blues (1961) [FLAC] {2003 Verve Music Group}\07 - Dixieland One-Step.wav

Pre-gap length 0:00:03.16

Peak level 98.8 %
Track quality 99.9 %
Test CRC A79A331C
Copy CRC A79A331C
Copy OK

Track 8
Filename D:\FLAC\Jack Teagarden and His Sextet - Mis'ry And The Blues (1961) [FLAC] {2003 Verve Music Group}\08 - Love Lies.wav

Pre-gap length 0:00:03.30

Peak level 98.8 %
Track quality 100.0 %
Test CRC CCA6313E
Copy CRC CCA6313E
Copy OK

Track 9
Filename D:\FLAC\Jack Teagarden and His Sextet - Mis'ry And The Blues (1961) [FLAC] {2003 Verve Music Group}\09 - Afternoon In August.wav

Pre-gap length 0:00:03.14

Peak level 100.0 %
Track quality 100.0 %
Test CRC D0125FC7
Copy CRC D0125FC7
Copy OK

Track 10
Filename D:\FLAC\Jack Teagarden and His Sextet - Mis'ry And The Blues (1961) [FLAC] {2003 Verve Music Group}\10 - Peaceful Valley.wav

Pre-gap length 0:00:03.18

Peak level 98.8 %
Track quality 100.0 %
Test CRC A562F878
Copy CRC A562F878
Copy OK

No errors occured


End of status report


Jack Teagarden & His Sextet - Mis'ry And The Blues (1961) {2003 Verve Music Group} **[RE-UP]**