Tags
Language
Tags

John Cacavas & Lalo Schifrin - Airport '77 / The Concord... Airport '79 (Original Motion Picture Soundtrack) (2018)

Posted By:
John Cacavas & Lalo Schifrin - Airport '77 / The Concord... Airport '79 (Original Motion Picture Soundtrack) (2018)

John Cacavas & Lalo Schifrin - Airport '77 / The Concord… Airport '79 (Original Motion Picture Soundtrack) (2018)
EAC Rip | FLAC, TRACKS+CUE, LOG, Scans | 0:41:53 + 01:08:33 = 01:50:26 | 798.09 MB
Score | La-La Land Records / LLLCD 1491

La-La Land Records and Universal Pictures proudly present the third title in the acclaimed Universal Pictures Film Music Heritage Collection – the world premiere release of the scores to the big-screen airborne thrillers AIRPORT ’77, music by John Cacavas (KOJAK, AIRPORT ’75, HORROR EXPRESS) and THE CONCORDE… AIRPORT ’79, music by Lalo Schifrin (RUSH HOUR, SUDDEN IMPACT, DIRTY HARRY, MISSION: IMPOSSIBLE). Never before officially available in any format, both of these prime ‘70s era thriller scores brim with big orchestral thrills, drama and suspense, courtesy of two composers flexing powerful musical muscle. Produced, mixed, mastered and edited by Mike Matessino from studio vault elements, this special release is limited to 3000 units and features exclusive, in-depth liner notes by writer Jeff Bond and high-flying art design by Dan Goldwasser.
Track list - CD 1: Airport '77 (1977)
01. Airport '77 Main Title [0:03:17.10]
02. Handbag and Banker's Makeup [0:03:27.04]
03. Floor Panel [0:01:56.27]
04. Cleared for Takeoff [0:01:06.59]
05. Guard Hit and Air Duct Manipulation [0:04:28.70]
06. Plane Down [0:03:34.73]
07. Julie and Steve / Briefing Search and Rescue [0:02:34.55]
08. Leak in Ceiling [0:01:14.16]
09. Bringin Wires Together and Karen's Fright [0:04:33.21]
10. Skin Divers at Work [0:03:53.08]
11. Securing the Plane [0:04:42.54]
12. Plane Saved [0:01:39.23]
13. Airport '77 End Title and End Cast [0:02:58.29]
Source Music:
14. I Just Said Goodbye [0:02:27.01]

Track list - CD 2: The Concorde… Airport '79 (1979)
01. The Concorde… Airport '79 Main Title [0:02:33.05]
02. Majestic Bird [0:00:59.54]
03. Love Rhapsody [0:03:47.64]
04. Weapons [0:04:05.35]
05. K.H. [0:01:58.42]
06. Confidential [0:01:35.36]
07. Welcome Aboard [0:02:47.61]
08. The Concorde Taxis [0:00:45.43]
09. The Drone / I'll See You in Paris [0:02:43.59]
10. Countdown and Malfunction [0:02:08.38]
11. Supersonic Confrontation [0:03:34.31]
12. Violent Aerobatics [0:03:10.15]
13. Engine Power Off [0:03:52.66]
14. The Net Springs Up [0:02:29.38]
15. It's Over [0:02:29.23]
16. Pressure Sealing [0:01:25.72]
17. Let's Try Again [0:00:58.24]
18. Chase at the Airport [0:03:10.64]
19. Number Seven / Altimiters / Cargo Door [0:01:39.14]
20. Out of Control [0:01:18.18]
21. The Alps [0:02:18.21]
22. Fighting the Crosswinds [0:03:18.42]
23. Snow, Fire and Rescue [0:04:36.28]
24. End Credits [0:04:34.45]
Source Music:
25. Love Rhapsody (Alternate) [0:04:11.57]
26. Dancing in the Clouds [0:01:06.54]
27. Gymnastics [0:00:51.01]

Discogs: 12857912

Links - Airport '77: SoundtrackCollector | IMDB
Links - The Concorde… Airport '79: SoundtrackCollector | IMDB

Exact Audio Copy V1.3 from 2. September 2016

EAC extraction logfile from 13. January 2019, 13:12

John Cacavas / Airport '77

Used drive : PLEXTOR CD-R PX-230A Adapter: 1 ID: 0

Read mode : Secure
Utilize accurate stream : Yes
Defeat audio cache : Yes
Make use of C2 pointers : No

Read offset correction : 738
Overread into Lead-In and Lead-Out : No
Fill up missing offset samples with silence : Yes
Delete leading and trailing silent blocks : No
Null samples used in CRC calculations : Yes
Used interface : Native Win32 interface for Win NT & 2000
Gap handling : Appended to previous track

Used output format : User Defined Encoder
Selected bitrate : 1024 kBit/s
Quality : High
Add ID3 tag : No
Command line compressor : C:\Program Files\Exact Audio Copy\Flac\flac.exe
Additional command line options : -6 -V -T "ARTIST=%artist%" -T "TITLE=%title%" -T "ALBUM=%albumtitle%" -T "DATE=%year%" -T "TRACKNUMBER=%tracknr%" -T "GENRE=%genre%" -T "COMMENT=%comment%" -T "ALBUMARTIST=%albuminterpret%" -T "COMPOSER=%composer%" -T "DISCNUMBER=%cdnumber%" -T "TOTALDISCS=%totalcds%" -T "TOTALTRACKS=%numtracks%" %source% -o %dest%


TOC of the extracted CD

Track | Start | Length | Start sector | End sector
––––––––––––––––––––––––––––-
1 | 0:00.00 | 3:17.10 | 0 | 14784
2 | 3:17.10 | 3:27.04 | 14785 | 30313
3 | 6:44.14 | 1:56.27 | 30314 | 39040
4 | 8:40.41 | 1:06.59 | 39041 | 44049
5 | 9:47.25 | 4:28.70 | 44050 | 64219
6 | 14:16.20 | 3:34.73 | 64220 | 80342
7 | 17:51.18 | 2:34.55 | 80343 | 91947
8 | 20:25.73 | 1:14.16 | 91948 | 97513
9 | 21:40.14 | 4:33.21 | 97514 | 118009
10 | 26:13.35 | 3:53.08 | 118010 | 135492
11 | 30:06.43 | 4:42.54 | 135493 | 156696
12 | 34:49.22 | 1:39.23 | 156697 | 164144
13 | 36:28.45 | 2:58.29 | 164145 | 177523
14 | 39:26.74 | 2:27.01 | 177524 | 188549


Track 1

Filename C:\Ripped by Filex\01 - Airport '77 Main Title.wav

Pre-gap length 0:00:02.00

Peak level 97.5 %
Extraction speed 6.7 X
Track quality 100.0 %
Test CRC C370B37B
Copy CRC C370B37B
Accurately ripped (confidence 4) [54860B59] (AR v2)
Copy OK

Track 2

Filename C:\Ripped by Filex\02 - Handbag and Banker's Makeup.wav

Peak level 68.3 %
Extraction speed 7.3 X
Track quality 100.0 %
Test CRC 36376808
Copy CRC 36376808
Accurately ripped (confidence 4) [DB9ED29D] (AR v2)
Copy OK

Track 3

Filename C:\Ripped by Filex\03 - Floor Panel.wav

Peak level 75.0 %
Extraction speed 7.0 X
Track quality 100.0 %
Test CRC 9481BEF2
Copy CRC 9481BEF2
Accurately ripped (confidence 4) [A0CF6C05] (AR v2)
Copy OK

Track 4

Filename C:\Ripped by Filex\04 - Cleared for Takeoff.wav

Peak level 96.7 %
Extraction speed 6.1 X
Track quality 100.0 %
Test CRC 056FABBA
Copy CRC 056FABBA
Accurately ripped (confidence 4) [633930CD] (AR v2)
Copy OK

Track 5

Filename C:\Ripped by Filex\05 - Gaurd Hit and Air Duct Manipulation.wav

Pre-gap length 0:00:01.10

Peak level 94.2 %
Extraction speed 7.3 X
Track quality 99.9 %
Test CRC 4080AC8D
Copy CRC 4080AC8D
Accurately ripped (confidence 4) [4F971830] (AR v2)
Copy OK

Track 6

Filename C:\Ripped by Filex\06 - Plane Down.wav

Peak level 94.4 %
Extraction speed 7.7 X
Track quality 100.0 %
Test CRC CEA3C23B
Copy CRC CEA3C23B
Accurately ripped (confidence 4) [BF4AEC89] (AR v2)
Copy OK

Track 7

Filename C:\Ripped by Filex\07 - Julie and Steve , Briefing Search and Rescue.wav

Peak level 73.7 %
Extraction speed 8.1 X
Track quality 100.0 %
Test CRC 508B48DB
Copy CRC 508B48DB
Accurately ripped (confidence 4) [802B1990] (AR v2)
Copy OK

Track 8

Filename C:\Ripped by Filex\08 - Leak in Ceiling.wav

Peak level 93.5 %
Extraction speed 6.7 X
Track quality 100.0 %
Test CRC 0C353447
Copy CRC 0C353447
Accurately ripped (confidence 4) [9A8B03C8] (AR v2)
Copy OK

Track 9

Filename C:\Ripped by Filex\09 - Bringin Wires Together and Karen's Fright.wav

Peak level 93.9 %
Extraction speed 8.6 X
Track quality 100.0 %
Test CRC 235AFD7E
Copy CRC 235AFD7E
Accurately ripped (confidence 4) [2C7F7C60] (AR v2)
Copy OK

Track 10

Filename C:\Ripped by Filex\10 - Skin Divers at Work.wav

Peak level 93.5 %
Extraction speed 8.4 X
Track quality 100.0 %
Test CRC 124A69FF
Copy CRC 124A69FF
Accurately ripped (confidence 4) [5C13886C] (AR v2)
Copy OK

Track 11

Filename C:\Ripped by Filex\11 - Securing the Plane.wav

Peak level 94.0 %
Extraction speed 8.9 X
Track quality 100.0 %
Test CRC D1ED66AD
Copy CRC D1ED66AD
Accurately ripped (confidence 4) [202FD8B8] (AR v2)
Copy OK

Track 12

Filename C:\Ripped by Filex\12 - Plane Saved.wav

Peak level 93.8 %
Extraction speed 8.2 X
Track quality 100.0 %
Test CRC A84C8B0F
Copy CRC A84C8B0F
Accurately ripped (confidence 4) [5C33483E] (AR v2)
Copy OK

Track 13

Filename C:\Ripped by Filex\13 - Airport '77 End Title and End Cast.wav

Peak level 94.1 %
Extraction speed 8.9 X
Track quality 100.0 %
Test CRC 5C1E01F6
Copy CRC 5C1E01F6
Accurately ripped (confidence 4) [B4B2A82F] (AR v2)
Copy OK

Track 14

Filename C:\Ripped by Filex\14 - I Just Said Goodbye.wav

Peak level 62.3 %
Extraction speed 8.4 X
Track quality 100.0 %
Test CRC 771483A0
Copy CRC 771483A0
Accurately ripped (confidence 4) [584F30EA] (AR v2)
Copy OK


All tracks accurately ripped

No errors occurred

End of status report

–– CUETools DB Plugin V2.1.6

[CTDB TOCID: T3PiCCQUfotE_Rvss89WLkHqSdM-] found
Submit result: T3PiCCQUfotE_Rvss89WLkHqSdM- has been confirmed
Track | CTDB Status
1 | (6/6) Accurately ripped
2 | (6/6) Accurately ripped
3 | (6/6) Accurately ripped
4 | (6/6) Accurately ripped
5 | (6/6) Accurately ripped
6 | (6/6) Accurately ripped
7 | (6/6) Accurately ripped
8 | (6/6) Accurately ripped
9 | (6/6) Accurately ripped
10 | (6/6) Accurately ripped
11 | (6/6) Accurately ripped
12 | (6/6) Accurately ripped
13 | (6/6) Accurately ripped
14 | (6/6) Accurately ripped


==== Log checksum 97C05FD2C42EE8E45CE60A3CE232FA01822183BA3528F7D2EF83E4D04B15DE88 ====


Exact Audio Copy V1.3 from 2. September 2016

EAC extraction logfile from 13. January 2019, 13:44

Lalo Schifrin / The Concorde… Airport '79

Used drive : PLEXTOR CD-R PX-230A Adapter: 1 ID: 0

Read mode : Secure
Utilize accurate stream : Yes
Defeat audio cache : Yes
Make use of C2 pointers : No

Read offset correction : 738
Overread into Lead-In and Lead-Out : No
Fill up missing offset samples with silence : Yes
Delete leading and trailing silent blocks : No
Null samples used in CRC calculations : Yes
Used interface : Native Win32 interface for Win NT & 2000
Gap handling : Appended to previous track

Used output format : User Defined Encoder
Selected bitrate : 1024 kBit/s
Quality : High
Add ID3 tag : No
Command line compressor : C:\Program Files\Exact Audio Copy\Flac\flac.exe
Additional command line options : -6 -V -T "ARTIST=%artist%" -T "TITLE=%title%" -T "ALBUM=%albumtitle%" -T "DATE=%year%" -T "TRACKNUMBER=%tracknr%" -T "GENRE=%genre%" -T "COMMENT=%comment%" -T "ALBUMARTIST=%albuminterpret%" -T "COMPOSER=%composer%" -T "DISCNUMBER=%cdnumber%" -T "TOTALDISCS=%totalcds%" -T "TOTALTRACKS=%numtracks%" %source% -o %dest%


TOC of the extracted CD

Track | Start | Length | Start sector | End sector
––––––––––––––––––––––––––––-
1 | 0:00.00 | 2:33.05 | 0 | 11479
2 | 2:33.05 | 0:59.54 | 11480 | 15958
3 | 3:32.59 | 3:47.64 | 15959 | 33047
4 | 7:20.48 | 4:05.35 | 33048 | 51457
5 | 11:26.08 | 1:58.42 | 51458 | 60349
6 | 13:24.50 | 1:35.36 | 60350 | 67510
7 | 15:00.11 | 2:47.61 | 67511 | 80096
8 | 17:47.72 | 0:45.43 | 80097 | 83514
9 | 18:33.40 | 2:43.59 | 83515 | 95798
10 | 21:17.24 | 2:08.38 | 95799 | 105436
11 | 23:25.62 | 3:34.31 | 105437 | 121517
12 | 27:00.18 | 3:10.15 | 121518 | 135782
13 | 30:10.33 | 3:52.66 | 135783 | 153248
14 | 34:03.24 | 2:29.38 | 153249 | 164461
15 | 36:32.62 | 2:29.23 | 164462 | 175659
16 | 39:02.10 | 1:25.72 | 175660 | 182106
17 | 40:28.07 | 0:58.24 | 182107 | 186480
18 | 41:26.31 | 3:10.64 | 186481 | 200794
19 | 44:37.20 | 1:39.14 | 200795 | 208233
20 | 46:16.34 | 1:18.18 | 208234 | 214101
21 | 47:34.52 | 2:18.21 | 214102 | 224472
22 | 49:52.73 | 3:18.42 | 224473 | 239364
23 | 53:11.40 | 4:36.28 | 239365 | 260092
24 | 57:47.68 | 4:34.45 | 260093 | 280687
25 | 62:22.38 | 4:11.57 | 280688 | 299569
26 | 66:34.20 | 1:06.54 | 299570 | 304573
27 | 67:40.74 | 0:51.01 | 304574 | 308399


Track 1

Filename C:\Ripped by Filex\01 - The Concorde… Airport '79 Main Title.wav

Pre-gap length 0:00:02.00

Peak level 97.5 %
Extraction speed 4.1 X
Track quality 99.9 %
Test CRC 5AECDB18
Copy CRC 5AECDB18
Accurately ripped (confidence 4) [44AEE12C] (AR v2)
Copy OK

Track 2

Filename C:\Ripped by Filex\02 - Majestic Bird.wav

Peak level 81.4 %
Extraction speed 3.3 X
Track quality 100.0 %
Test CRC B90508B7
Copy CRC B90508B7
Accurately ripped (confidence 4) [555998D9] (AR v2)
Copy OK

Track 3

Filename C:\Ripped by Filex\03 - Love Rhapsody.wav

Pre-gap length 0:00:01.00

Peak level 83.7 %
Extraction speed 4.3 X
Track quality 100.0 %
Test CRC 52D5AAF3
Copy CRC 52D5AAF3
Accurately ripped (confidence 4) [1646D39C] (AR v2)
Copy OK

Track 4

Filename C:\Ripped by Filex\04 - Weapons.wav

Peak level 97.3 %
Extraction speed 4.6 X
Track quality 100.0 %
Test CRC 06BA47BE
Copy CRC 06BA47BE
Accurately ripped (confidence 4) [AA6E0527] (AR v2)
Copy OK

Track 5

Filename C:\Ripped by Filex\05 - K. H..wav

Peak level 47.3 %
Extraction speed 4.4 X
Track quality 100.0 %
Test CRC 247C8F33
Copy CRC 247C8F33
Accurately ripped (confidence 4) [23285975] (AR v2)
Copy OK

Track 6

Filename C:\Ripped by Filex\06 - Confidential.wav

Peak level 49.5 %
Extraction speed 4.3 X
Track quality 100.0 %
Test CRC A078033F
Copy CRC A078033F
Accurately ripped (confidence 4) [BB915538] (AR v2)
Copy OK

Track 7

Filename C:\Ripped by Filex\07 - Welcome Aboard.wav

Peak level 96.2 %
Extraction speed 4.9 X
Track quality 100.0 %
Test CRC 11EE8A0C
Copy CRC 11EE8A0C
Accurately ripped (confidence 4) [22638713] (AR v2)
Copy OK

Track 8

Filename C:\Ripped by Filex\08 - The Concorde Taxis.wav

Pre-gap length 0:00:01.42

Peak level 97.4 %
Extraction speed 3.8 X
Track quality 100.0 %
Test CRC 96D52E9C
Copy CRC 96D52E9C
Accurately ripped (confidence 4) [524AA524] (AR v2)
Copy OK

Track 9

Filename C:\Ripped by Filex\09 - The Drone - I'll See You in Paris.wav

Peak level 68.8 %
Extraction speed 5.2 X
Track quality 100.0 %
Test CRC 91B4B374
Copy CRC 91B4B374
Accurately ripped (confidence 4) [198161F7] (AR v2)
Copy OK

Track 10

Filename C:\Ripped by Filex\10 - Countdown and Malfunction.wav

Peak level 96.7 %
Extraction speed 4.9 X
Track quality 100.0 %
Test CRC 7BF0681F
Copy CRC 7BF0681F
Accurately ripped (confidence 4) [5E8773C9] (AR v2)
Copy OK

Track 11

Filename C:\Ripped by Filex\11 - Supersonic Confrontation.wav

Peak level 97.6 %
Extraction speed 5.5 X
Track quality 100.0 %
Test CRC 66133B4C
Copy CRC 66133B4C
Accurately ripped (confidence 4) [A0C41114] (AR v2)
Copy OK

Track 12

Filename C:\Ripped by Filex\12 - Violent Aerobatics.wav

Peak level 96.7 %
Extraction speed 5.0 X
Track quality 99.9 %
Test CRC DCBE02A5
Copy CRC DCBE02A5
Accurately ripped (confidence 4) [52C7A4D3] (AR v2)
Copy OK

Track 13

Filename C:\Ripped by Filex\13 - Engine Power Off.wav

Peak level 97.4 %
Extraction speed 5.9 X
Track quality 100.0 %
Test CRC 109A0DF4
Copy CRC 109A0DF4
Accurately ripped (confidence 4) [C38C186B] (AR v2)
Copy OK

Track 14

Filename C:\Ripped by Filex\14 - The Net Springs Up.wav

Peak level 97.6 %
Extraction speed 5.8 X
Track quality 100.0 %
Test CRC DC53CA62
Copy CRC DC53CA62
Accurately ripped (confidence 4) [4A21668E] (AR v2)
Copy OK

Track 15

Filename C:\Ripped by Filex\15 - It's Over.wav

Peak level 66.5 %
Extraction speed 5.9 X
Track quality 100.0 %
Test CRC 0946E575
Copy CRC 0946E575
Accurately ripped (confidence 4) [884449F5] (AR v2)
Copy OK

Track 16

Filename C:\Ripped by Filex\16 - Pressure Sealing.wav

Peak level 48.8 %
Extraction speed 4.1 X
Track quality 99.8 %
Test CRC 4439566D
Copy CRC 4439566D
Accurately ripped (confidence 4) [3C8461E2] (AR v2)
Copy OK

Track 17

Filename C:\Ripped by Filex\17 - Let's Try Again.wav

Peak level 32.6 %
Extraction speed 4.8 X
Track quality 100.0 %
Test CRC 65C594B6
Copy CRC 65C594B6
Accurately ripped (confidence 4) [580BA037] (AR v2)
Copy OK

Track 18

Filename C:\Ripped by Filex\18 - Chase at the Airport.wav

Pre-gap length 0:00:01.05

Peak level 97.3 %
Extraction speed 6.4 X
Track quality 100.0 %
Test CRC D35C82A3
Copy CRC D35C82A3
Accurately ripped (confidence 4) [2C29C056] (AR v2)
Copy OK

Track 19

Filename C:\Ripped by Filex\19 - Number Seven , Altimiters , Cargo Door.wav

Peak level 97.2 %
Extraction speed 5.8 X
Track quality 100.0 %
Test CRC A02E567D
Copy CRC A02E567D
Accurately ripped (confidence 4) [2B2B83F8] (AR v2)
Copy OK

Track 20

Filename C:\Ripped by Filex\20 - Out of Control.wav

Peak level 97.9 %
Extraction speed 5.5 X
Track quality 100.0 %
Test CRC 8C42A28C
Copy CRC 8C42A28C
Accurately ripped (confidence 4) [C3998DAE] (AR v2)
Copy OK

Track 21

Filename C:\Ripped by Filex\21 - The Alps.wav

Peak level 96.5 %
Extraction speed 6.3 X
Track quality 100.0 %
Test CRC 2FE441D4
Copy CRC 2FE441D4
Accurately ripped (confidence 4) [046E7692] (AR v2)
Copy OK

Track 22

Filename C:\Ripped by Filex\22 - Fighting the Crosswinds.wav

Peak level 97.4 %
Extraction speed 5.7 X
Track quality 99.9 %
Test CRC F0D5ED97
Copy CRC F0D5ED97
Accurately ripped (confidence 4) [BAE7A773] (AR v2)
Copy OK

Track 23

Filename C:\Ripped by Filex\23 - Snow, Fire, and Rescue.wav

Peak level 98.2 %
Extraction speed 7.1 X
Track quality 100.0 %
Test CRC 4716B1A9
Copy CRC 4716B1A9
Accurately ripped (confidence 4) [287268DF] (AR v2)
Copy OK

Track 24

Filename C:\Ripped by Filex\24 - End Credits.wav

Peak level 97.6 %
Extraction speed 7.3 X
Track quality 100.0 %
Test CRC 15BD8789
Copy CRC 15BD8789
Accurately ripped (confidence 4) [281D2FBA] (AR v2)
Copy OK

Track 25

Filename C:\Ripped by Filex\25 - Love Rhapsody (Alternate).wav

Pre-gap length 0:00:02.63

Peak level 95.9 %
Extraction speed 7.0 X
Track quality 100.0 %
Test CRC 71F8982A
Copy CRC 71F8982A
Accurately ripped (confidence 4) [0AF6BA10] (AR v2)
Copy OK

Track 26

Filename C:\Ripped by Filex\26 - Dancing in the Clouds.wav

Pre-gap length 0:00:01.25

Peak level 96.5 %
Extraction speed 3.8 X
Track quality 99.8 %
Test CRC 2789372B
Copy CRC 2789372B
Accurately ripped (confidence 4) [DE4B64B0] (AR v2)
Copy OK

Track 27

Filename C:\Ripped by Filex\27 - Gymnastics.wav

Peak level 76.5 %
Extraction speed 4.9 X
Track quality 100.0 %
Test CRC 209C31CA
Copy CRC 209C31CA
Accurately ripped (confidence 4) [13A05685] (AR v2)
Copy OK


All tracks accurately ripped

No errors occurred

End of status report

–– CUETools DB Plugin V2.1.6

[CTDB TOCID: PkC5S6ouq.6WYQM66V8LafvIKn0-] found
Submit result: PkC5S6ouq.6WYQM66V8LafvIKn0- has been confirmed
Track | CTDB Status
1 | (6/6) Accurately ripped
2 | (6/6) Accurately ripped
3 | (6/6) Accurately ripped
4 | (6/6) Accurately ripped
5 | (6/6) Accurately ripped
6 | (6/6) Accurately ripped
7 | (6/6) Accurately ripped
8 | (6/6) Accurately ripped
9 | (6/6) Accurately ripped
10 | (6/6) Accurately ripped
11 | (6/6) Accurately ripped
12 | (6/6) Accurately ripped
13 | (6/6) Accurately ripped
14 | (6/6) Accurately ripped
15 | (6/6) Accurately ripped
16 | (6/6) Accurately ripped
17 | (6/6) Accurately ripped
18 | (6/6) Accurately ripped
19 | (6/6) Accurately ripped
20 | (6/6) Accurately ripped
21 | (6/6) Accurately ripped
22 | (6/6) Accurately ripped
23 | (6/6) Accurately ripped
24 | (6/6) Accurately ripped
25 | (6/6) Accurately ripped
26 | (6/6) Accurately ripped
27 | (6/6) Accurately ripped


==== Log checksum A7A32ADDADA07B0C3F7CF63D384743CDE98C7675C0D45DA0B1B152F48ED2FE04 ====