Tags
Language
Tags

Jack Russell’s Great White - Once Bitten Acoustic Bytes (2020)

Posted By: popsakov
Jack Russell’s Great White - Once Bitten Acoustic Bytes (2020)

Jack Russell’s Great White - Once Bitten Acoustic Bytes (2020)
EAC Rip | FLAC (Img) + Cue + Log ~ 385 Mb | MP3 CBR320 ~ 138 Mb
Full Scans | 00:53:22 | RAR 5% Recovery
Dead Line Music #CLO1598 | Unofficial Release
Classic Rock / Glam Rock / Acoustic

2020 release. A very special acoustic album from Great White founder and vocalist Jack Russell! Includes powerful, stripped down versions of the band's hit singles 'Save Your Love', 'Rock Me', and many more!

***************

Track List:

01. Lady Red Light [4:40]
02. Gonna Getcha [4:11]
03. Rock Me [7:34]
04. All Over Now [5:00]
05. Mistreater [5:26]
06. Never Change Heart [4:34]
07. Fast Road [3:54]
08. Livin' on the Edge [5:44]
09. Save Your Love [5:09]
10. Babe (I'm Gonna Leave You) [7:11]

Exact Audio Copy V1.5 from 20. February 2020

EAC extraction logfile from 16. August 2020, 14:01

Jack Russell’s Great White / Once Bitten Acoustic Bytes (CLO1598)

Used drive : PIONEER BD-RW BDR-209D Adapter: 1 ID: 2

Read mode : Secure
Utilize accurate stream : Yes
Defeat audio cache : Yes
Make use of C2 pointers : No

Read offset correction : 667
Overread into Lead-In and Lead-Out : No
Fill up missing offset samples with silence : Yes
Delete leading and trailing silent blocks : No
Null samples used in CRC calculations : Yes
Used interface : Native Win32 interface for Win NT & 2000

Used output format : User Defined Encoder
Selected bitrate : 896 kBit/s
Quality : High
Add ID3 tag : No
Command line compressor : C:\Program Files (x86)\Exact Audio Copy\FLAC\FLAC.EXE
Additional command line options : -6 -V -T "ARTIST=%artist%" -T "TITLE=%title%" -T "ALBUM=%albumtitle%" -T "DATE=%year%" -T "TRACKNUMBER=%tracknr%" -T "GENRE=%genre%" -T "COMMENT=%comment%" -T "BAND=%albuminterpret%" -T "ALBUMARTIST=%albuminterpret%" -T "COMPOSER=%composer%" %haslyrics%–tag-from-file=LYRICS="%lyricsfile%"%haslyrics% -T "DISCNUMBER=%cdnumber%" -T "TOTALDISCS=%totalcds%" -T "TOTALTRACKS=%numtracks%" %hascover%–picture="%coverfile%"%hascover% %source% -o %dest%


TOC of the extracted CD

Track | Start | Length | Start sector | End sector
––––––––––––––––––––––––––––-
1 | 0:00.00 | 4:40.04 | 0 | 21003
2 | 4:40.04 | 4:10.53 | 21004 | 39806
3 | 8:50.57 | 7:34.00 | 39807 | 73856
4 | 16:24.57 | 5:00.00 | 73857 | 96356
5 | 21:24.57 | 5:25.47 | 96357 | 120778
6 | 26:50.29 | 4:33.52 | 120779 | 141305
7 | 31:24.06 | 3:53.72 | 141306 | 158852
8 | 35:18.03 | 5:44.27 | 158853 | 184679
9 | 41:02.30 | 5:08.38 | 184680 | 207817
10 | 46:10.68 | 7:11.14 | 207818 | 240156


Range status and errors

Selected range

Filename E:\MUSIC\Jack Russell’s Great White - Once Bitten Acoustic Bytes (CLO1598).wav

Peak level 100.0 %
Extraction speed 7.8 X
Range quality 100.0 %
Test CRC 69D69A8D
Copy CRC 69D69A8D
Copy OK

No errors occurred


AccurateRip summary

Track 1 not present in database
Track 2 not present in database
Track 3 not present in database
Track 4 not present in database
Track 5 not present in database
Track 6 not present in database
Track 7 not present in database
Track 8 not present in database
Track 9 not present in database
Track 10 not present in database

None of the tracks are present in the AccurateRip database

End of status report

–– CUETools DB Plugin V2.1.6

[CTDB TOCID: 7qXjecwc_ZqffZNgnn2os_JjNLA-] found
Submit result: 7qXjecwc_ZqffZNgnn2os_JjNLA- has been confirmed
Track | CTDB Status
1 | (3/3) Accurately ripped
2 | (3/3) Accurately ripped
3 | (3/3) Accurately ripped
4 | (3/3) Accurately ripped
5 | (3/3) Accurately ripped
6 | (3/3) Accurately ripped
7 | (3/3) Accurately ripped
8 | (3/3) Accurately ripped
9 | (3/3) Accurately ripped
10 | (3/3) Accurately ripped


==== Log checksum 66D05B021D0D9DEB1F9DE1B7E0CEE1A8FB96EACFDA5C705B098168F5228768F1 ====

Jack Russell’s Great White - Once Bitten Acoustic Bytes (2020)