Subcategories
Tags
Language
Tags

Jack DeJohnette's Special Edition - Earth Walk (1991)

Posted By: tiburon
Jack DeJohnette's Special Edition - Earth Walk (1991)

Jack DeJohnette's Special Edition - Earth Walk (1991)
EAC 0.99pb4 | FLAC tracks level 8 | Cue+Log+M3U | Full Scans 400dpi | 463MB + 5% Recovery
MP3 CBR 320 Kbps | 172MB + 5% Recovery
Genre: Fusion, Post-Bop
Jack DeJohnette's Special Edition - Earth Walk (1991)

The final version of drummer/composer Jack DeJohnette's Special Edition bands sports a unique sound, on the verge of M-Base, and artfully driven due to saxophonists Greg Osby and Gary Thomas. Their tart sweet sounds are as much a part of the identity of this group as anything, and DeJohnette adds his own personal brand of funk and swing to the proceeding, making for an exciting and vital original music. Bassist Lonnie Plaxico, straight off the bandstand with Art Blakey's Jazz Messengers, keeps things briskly moving along, while Michael Cain plays a lot of acoustic piano, and some modified electric keyboards, to further separate this Special Edition from the others.
Track List
01. It's Time To Wake Up And Dream 5:25
02. Blue 6:16
03. Where Or Wayne 9:41
04. Priestesses Of The Mist 7:41
05. Earth Walk 13:00
06. On Golden Beams 5:12
07. One On One 11:13
08. Lydia 2:20
09. Monk's Plumb 12:05
10. It's Time To Wake Up And Dream 0:49

musicians
Jack DeJohnette - Sonor drums, Korg keyboards
Michael Cain - Yamaha midi acoustic grand piano, synthesizers Korg T2, T3
Greg Osby - alto and soprano saxes
Gary Thomas - tenor saxophone, flute
Lonnie Plaxico - acoustic and electric basses
Joan Henry - animal sounds on track 5

Produced by Jack DeJohnette


Exact Audio Copy V0.99 prebeta 4 from 23. January 2008

EAC extraction logfile from 31. January 2010, 13:27

Jack DeJohnette / Earth Walk

Used drive : TSSTcorpDVD+-RW TS-H653F Adapter: 0 ID: 1

Read mode : Secure
Utilize accurate stream : Yes
Defeat audio cache : Yes
Make use of C2 pointers : No

Read offset correction : 6
Overread into Lead-In and Lead-Out : No
Fill up missing offset samples with silence : Yes
Delete leading and trailing silent blocks : No
Null samples used in CRC calculations : Yes
Used interface : Native Win32 interface for Win NT & 2000
Gap handling : Appended to previous track

Used output format : User Defined Encoder
Selected bitrate : 128 kBit/s
Quality : High
Add ID3 tag : No
Command line compressor : C:\Program Files\Exact Audio Copy\Flac\flac.exe
Additional command line options : -V -8 -T "artist=%a" -T "title=%t" -T "album=%g" -T "date=%y" -T "tracknumber=%n" -T "genre=%m" %s


TOC of the extracted CD

Track | Start | Length | Start sector | End sector
––––––––––––––––––––––––––––-
1 | 0:00.00 | 5:30.52 | 0 | 24801
2 | 5:30.52 | 6:18.53 | 24802 | 53204
3 | 11:49.30 | 9:44.35 | 53205 | 97039
4 | 21:33.65 | 7:44.72 | 97040 | 131911
5 | 29:18.62 | 13:05.15 | 131912 | 190801
6 | 42:24.02 | 5:16.13 | 190802 | 214514
7 | 47:40.15 | 11:18.25 | 214515 | 265389
8 | 58:58.40 | 2:24.40 | 265390 | 276229
9 | 61:23.05 | 12:08.57 | 276230 | 330886
10 | 73:31.62 | 0:50.28 | 330887 | 334664


Track 1

Filename C:\EACrips\Jack DeJohnette - 1991 - Earth Walk [FLAC]\01 - It's Time To Wake Up And Dream.wav

Pre-gap length 0:00:02.00

Peak level 100.0 %
Track quality 100.0 %
Test CRC BE793DDE
Copy CRC BE793DDE
Accurately ripped (confidence 5) [9092B980]
Copy OK

Track 2

Filename C:\EACrips\Jack DeJohnette - 1991 - Earth Walk [FLAC]\02 - Blue.wav

Pre-gap length 0:00:02.36

Peak level 100.0 %
Track quality 100.0 %
Test CRC 9EC47E24
Copy CRC 9EC47E24
Accurately ripped (confidence 5) [D1EC3D7F]
Copy OK

Track 3

Filename C:\EACrips\Jack DeJohnette - 1991 - Earth Walk [FLAC]\03 - Where Or Wayne.wav

Pre-gap length 0:00:00.84

Peak level 99.8 %
Track quality 100.0 %
Test CRC 81FB2F54
Copy CRC 81FB2F54
Accurately ripped (confidence 5) [80B7B47E]
Copy OK

Track 4

Filename C:\EACrips\Jack DeJohnette - 1991 - Earth Walk [FLAC]\04 - Priestesses Of The Mist.wav

Pre-gap length 0:00:01.53

Peak level 99.8 %
Track quality 100.0 %
Test CRC 5A3C38CA
Copy CRC 5A3C38CA
Accurately ripped (confidence 5) [E18E3B49]
Copy OK

Track 5

Filename C:\EACrips\Jack DeJohnette - 1991 - Earth Walk [FLAC]\05 - Earth Walk.wav

Pre-gap length 0:00:00.93

Peak level 100.0 %
Track quality 100.0 %
Test CRC B7E159FA
Copy CRC B7E159FA
Accurately ripped (confidence 5) [0E863A03]
Copy OK

Track 6

Filename C:\EACrips\Jack DeJohnette - 1991 - Earth Walk [FLAC]\06 - On Golden Beams.wav

Pre-gap length 0:00:01.93

Peak level 99.9 %
Track quality 100.0 %
Test CRC CB0A077C
Copy CRC CB0A077C
Accurately ripped (confidence 5) [6EDDB82C]
Copy OK

Track 7

Filename C:\EACrips\Jack DeJohnette - 1991 - Earth Walk [FLAC]\07 - One On One.wav

Pre-gap length 0:00:01.40

Peak level 99.9 %
Track quality 100.0 %
Test CRC ABB9CB5B
Copy CRC ABB9CB5B
Accurately ripped (confidence 5) [C7903C7C]
Copy OK

Track 8

Filename C:\EACrips\Jack DeJohnette - 1991 - Earth Walk [FLAC]\08 - Lydia.wav

Pre-gap length 0:00:01.50

Peak level 67.8 %
Track quality 100.0 %
Test CRC 7AFD3470
Copy CRC 7AFD3470
Accurately ripped (confidence 5) [9DA33768]
Copy OK

Track 9

Filename C:\EACrips\Jack DeJohnette - 1991 - Earth Walk [FLAC]\09 - Monk's Plumb.wav

Pre-gap length 0:00:01.33

Peak level 98.8 %
Track quality 100.0 %
Test CRC C8EB4E4E
Copy CRC C8EB4E4E
Accurately ripped (confidence 5) [C9A2C374]
Copy OK

Track 10

Filename C:\EACrips\Jack DeJohnette - 1991 - Earth Walk [FLAC]\10 - It's Time To Wake Up And Dream.wav

Pre-gap length 0:00:01.42

Peak level 82.2 %
Track quality 100.0 %
Test CRC 1B1CB7EF
Copy CRC 1B1CB7EF
Accurately ripped (confidence 5) [96176671]
Copy OK


All tracks accurately ripped

No errors occurred

End of status report


––––––––––––––––––––––––––––––––––––––––
Analyzed: Jack DeJohnette / Earth Walk
––––––––––––––––––––––––––––––––––––––––

DR Peak RMS Duration Track
––––––––––––––––––––––––––––––––––––––––
DR12 0.00 dB -13.80 dB 5:31 01-It's Time To Wake Up And Dream
DR13 0.00 dB -15.75 dB 6:19 02-Blue
DR14 -0.01 dB -16.42 dB 9:44 03-Where Or Wayne
DR12 -0.01 dB -15.13 dB 7:45 04-Priestesses Of The Mist
DR11 0.00 dB -12.99 dB 13:05 05-Earth Walk
DR11 -0.01 dB -12.80 dB 5:16 06-On Golden Beams
DR14 0.00 dB -16.30 dB 11:18 07-One On One
DR12 -3.37 dB -20.63 dB 2:25 08-Lydia
DR14 -0.10 dB -15.84 dB 12:09 09-Monk's Plumb
DR12 -1.70 dB -19.56 dB 0:50 10-It's Time To Wake Up And Dream
––––––––––––––––––––––––––––––––––––––––

Number of tracks: 10
Official DR value: DR12

Samplerate: 44100 Hz
Channels: 2
Bits per sample: 16
Bitrate: 720 kbps
Codec: FLAC
================================================================================

Jack DeJohnette's Special Edition - Earth Walk (1991)
Jack DeJohnette's Special Edition - Earth Walk (1991)
Jack DeJohnette's Special Edition - Earth Walk (1991)


Thanks to the original ripper