Tags
Language
Tags

Jack Montrose with Bob Gordon - Arranged/Played/Composed by Jack Montrose (1955) [Reissue 2000]

Posted By: gribovar
Jack Montrose with Bob Gordon - Arranged/Played/Composed by Jack Montrose (1955) [Reissue 2000]

Jack Montrose with Bob Gordon - Arranged/Played/Composed by Jack Montrose (1955) [Reissue 2000]
EAC Rip | FLAC (image+.cue+log) - 250 MB | MP3 CBR 320 kbps (LAME 3.93) - 100 MB | Covers - 4 MB
Genre: Jazz, Bop, Cool Jazz | RAR 3% Rec. | Label: Koch Jazz (KOC CD-8571)

The Koch Jazz reissue Arranged/Played/Composed by Jack Montrose was originally released on Atlantic in 1955. Tenor saxophonist Montrose was from the West Coast school of cool jazz, and was significantly influenced by classical music. On this date he was thinking specifically about utilizing every instrument in structured chamber-esque arrangements. Montrose managed to achieve his goal of leading a swinging improvised jazz session without being restricted by this rigid structure. Baritone saxophonist Bob Gordon, pianist Paul Moer, bassist Red Mitchell, and drummer Shelly Manne run through five Montrose originals coupled with popular songs of the time "When You Wish Upon a Star" and "Have You Met Miss Jones."
Tracklist:
01. A Little Duet
02. April's Fool
03. Dot's Groovy
04. I'm Gonna Move To The Outskirts Of Town
05. Cecilia
06. The News And The Weather
07. When You Wish Upon A Star
08. Have You Met Miss Jones
09. Paradox

Total time: 42:36

Exact Audio Copy V0.99 prebeta 4 from 23. January 2008

Отчёт EAC об извлечении, выполненном 6. февраля 2011, 10:42

Jack Montrose With Bob Gordon / Arranged, Composed, Played By Jack Montrose

Дисковод: HL-DT-STDVDRAM GH20LS10 Adapter: 2 ID: 0

Режим чтения : Достоверность
Использование точного потока : Да
Отключение кэша аудио : Да
Использование указателей C2 : Нет

Коррекция смещения при чтении : 667
Способность читать области Lead-in и Lead-out : Нет
Заполнение пропущенных сэмплов тишиной : Да
Удаление блоков с тишиной в начале и конце : Нет
При вычислениях CRC использовались нулевые сэмплы : Да
Интерфейс : Встроенный Win32-интерфейс для Win NT/2000

Выходной формат : Внутренние WAV-операции
Формат сэмплов : 44.100 Гц; 16 бит; стерео


TOC извлечённого CD

Трек | Старт | Длительность | Начальный сектор | Конечный сектор
––––––––––––––––––––––––––––––––––-
1 | 0:00.32 | 5:01.20 | 32 | 22626
2 | 5:01.52 | 5:06.48 | 22627 | 45624
3 | 10:08.25 | 4:44.27 | 45625 | 66951
4 | 14:52.52 | 5:48.20 | 66952 | 93071
5 | 20:40.72 | 4:37.18 | 93072 | 113864
6 | 25:18.15 | 4:20.30 | 113865 | 133394
7 | 29:38.45 | 3:35.65 | 133395 | 149584
8 | 33:14.35 | 5:17.47 | 149585 | 173406
9 | 38:32.07 | 4:03.38 | 173407 | 191669


Характеристики диапазона извлечения и сообщения об ошибках

Выбранный диапазон

Имя файла D:\Lossless\Jack Montrose-1956\Jack Montrose With Bob Gordon - Arranged, Composed, Played By Jack Montrose.wav

Пиковый уровень 100.0 %
Качество диапазона 99.9 %
CRC теста 490FDDE9
CRC копии 490FDDE9
Копирование… OK

Ошибок не произошло


AccurateRip: сводка

Трек 1 точное извлечение (доверие 1) [0ACC57F4]
Трек 2 точное извлечение (доверие 1) [F1CB5F50]
Трек 3 точное извлечение (доверие 1) [EAB6D355]
Трек 4 точное извлечение (доверие 1) [01ED887E]
Трек 5 точное извлечение (доверие 1) [CB2415CE]
Трек 6 точное извлечение (доверие 1) [45C9B5BF]
Трек 7 точное извлечение (доверие 1) [4C6B559C]
Трек 8 точное извлечение (доверие 1) [2AE1F7FE]
Трек 9 точное извлечение (доверие 1) [140C90E4]

Все треки извлечены точно

Конец отчёта

[CUETools log; Date: 21.10.2021 16:25:05; Version: 2.1.4]
Pregap length 00:00:32.
HDCD: peak extend: none, transient filter: none, gain: none
[CTDB TOCID: gN.pGpi775lRg.EUipTEtQBgTQs-] found.
Track | CTDB Status
1 | (3/3) Accurately ripped
2 | (3/3) Accurately ripped
3 | (3/3) Accurately ripped
4 | (3/3) Accurately ripped
5 | (3/3) Accurately ripped
6 | (3/3) Accurately ripped
7 | (3/3) Accurately ripped
8 | (3/3) Accurately ripped
9 | (3/3) Accurately ripped
[AccurateRip ID: 000f1c16-006df5b7-6809fb09] found.
Track [ CRC | V2 ] Status
01 [0acc57f4|7bdff843] (0+6/6) Accurately ripped
02 [f1cb5f50|b6801d3c] (0+6/6) Accurately ripped
03 [eab6d355|9e79114d] (0+6/6) Accurately ripped
04 [01ed887e|e7471817] (0+6/6) Accurately ripped
05 [cb2415ce|183b1ac1] (0+6/6) Accurately ripped
06 [45c9b5bf|84a0619f] (0+6/6) Accurately ripped
07 [4c6b559c|9f28e4e0] (0+6/6) Accurately ripped
08 [2ae1f7fe|a2e6c18c] (0+6/6) Accurately ripped
09 [140c90e4|87efdc9c] (0+6/6) Accurately ripped

Track Peak [ CRC32 ] [W/O NULL] [ LOG ]
– 100,0 [490FDDE9] [0B76123E] CRC32
01 100,0 [B77997CE] [59D7DD65]
02 72,6 [3A2062ED] [1989FDAF]
03 96,2 [25C8A8F9] [9F27924A]
04 100,0 [F69D421A] [4251D877]
05 99,9 [6CCA4D18] [6C0EF804]
06 83,6 [0EF2E2CC] [B93EB1D1]
07 78,4 [63452B78] [3889E032]
08 100,0 [F2BC321C] [FDEAAC13]
09 100,0 [B1B2D92A] [F48F593D]

Thanks to SerBlues