Subcategories

Jade Valerie - Out Of The Box & Bittersweet Symphony (2008)

Posted By: JET 1
Jade Valerie - Out Of The Box & Bittersweet Symphony (2008)

Jade Valerie - Out Of The Box & Bittersweet Symphony (2008)
EAC Rip | FLAC (Tracks) +CUE, LOG | 523 MB | Covers Included
Genre: Electro, Pop, R&B | Label: Universal J/J-Art | Catalog Number: UPCH-1590

Jade Valerie Villalon (born August 12, 1980), also known by her project and stage name Jade Valerie, is an American and European pop singer, songwriter, and actress. From 1999 to 2007, she was the vocalist and lyricist of Sweetbox, releasing five original albums and a number of compilations. During this time, each major release achieved either a Gold or Platinum status in Japan and Korea, also earning various awards and chart positions around the world. Following Villalon's departure from this project, both Villalon, and Sweetbox composer and producer Rosan Geoman, worked together once again to release albums under Villalon's own name, Jade Valerie. After two album releases under this name, two additional side-projects were formed, entitled Eternity ∞ and Saint Vox, both releasing a self-titled album respectively. Saint Vox presented a collaboration effort between Villalon's vocal and lyrical work, Geoman's arrangements of both original and sampled classical pieces, and the stylings of Japanese violinist, Emiri Miyamoto.

Exact Audio Copy V1.1 from 23. June 2015

EAC extraction logfile from 31. January 2017, 18:39

Jade Valerie / Bittersweet Symphony

Used drive : ASUS DRW-24B1ST j Adapter: 1 ID: 0

Read mode : Secure
Utilize accurate stream : Yes
Defeat audio cache : Yes
Make use of C2 pointers : No

Read offset correction : 6
Overread into Lead-In and Lead-Out : No
Fill up missing offset samples with silence : Yes
Delete leading and trailing silent blocks : No
Null samples used in CRC calculations : Yes
Used interface : Native Win32 interface for Win NT & 2000
Gap handling : Appended to previous track

Used output format : User Defined Encoder
Selected bitrate : 1024 kBit/s
Quality : High
Add ID3 tag : No
Command line compressor : C:\Program Files (x86)\Exact Audio Copy\Flac\flac.exe
Additional command line options : -8 -e -V -T "ARTIST=%artist%" -T "TITLE=%title%" -T "ALBUM=%albumtitle%" -T "DATE=%year%" -T "TRACKNUMBER=%tracknr%" -T "GENRE=%genre%" -T "PERFORMER=%albuminterpret%" -T "COMPOSER=%composer%" %haslyrics%–tag-from-file=LYRICS="%lyricsfile%"%haslyrics% -T "ALBUMARTIST=%albumartist%" -T "DISCNUMBER=%cdnumber%" -T "TOTALDISCS=%totalcds%" -T "TOTALTRACKS=%numtracks%" -T "COMMENT=%comment%" %source% -o %dest%


TOC of the extracted CD

Track | Start | Length | Start sector | End sector
––––––––––––––––––––––––––––-
1 | 0:00.00 | 3:40.41 | 0 | 16540
2 | 3:40.41 | 3:40.05 | 16541 | 33045
3 | 7:20.46 | 3:30.49 | 33046 | 48844
4 | 10:51.20 | 3:43.57 | 48845 | 65626
5 | 14:35.02 | 3:43.50 | 65627 | 82401
6 | 18:18.52 | 3:23.30 | 82402 | 97656
7 | 21:42.07 | 3:41.11 | 97657 | 114242
8 | 25:23.18 | 3:42.56 | 114243 | 130948
9 | 29:05.74 | 3:15.29 | 130949 | 145602
10 | 32:21.28 | 3:19.14 | 145603 | 160541
11 | 35:40.42 | 3:45.11 | 160542 | 177427
12 | 39:25.53 | 4:11.51 | 177428 | 196303
13 | 43:37.29 | 2:51.59 | 196304 | 209187
14 | 46:29.13 | 3:18.30 | 209188 | 224067


Track 1

Filename H:\Music Rips\Jade Valerie\Bittersweet Symphony\01 - Unbreakable (Moonlight Sonata).wav

Pre-gap length 0:00:02.00

Peak level 99.9 %
Extraction speed 5.0 X
Track quality 100.0 %
Test CRC 3DB2974D
Copy CRC 3DB2974D
Accurately ripped (confidence 6) [B2475BB7] (AR v2)
Copy OK

Track 2

Filename H:\Music Rips\Jade Valerie\Bittersweet Symphony\02 - Like A Bird.wav

Pre-gap length 0:00:01.98

Peak level 98.7 %
Extraction speed 4.5 X
Track quality 99.9 %
Test CRC 2BB58643
Copy CRC 2BB58643
Accurately ripped (confidence 6) [B1624857] (AR v2)
Copy OK

Track 3

Filename H:\Music Rips\Jade Valerie\Bittersweet Symphony\03 - Out In The Sea.wav

Pre-gap length 0:00:01.98

Peak level 99.9 %
Extraction speed 5.9 X
Track quality 100.0 %
Test CRC 7AD277CD
Copy CRC 7AD277CD
Accurately ripped (confidence 6) [11567956] (AR v2)
Copy OK

Track 4

Filename H:\Music Rips\Jade Valerie\Bittersweet Symphony\04 - Razorman.wav

Pre-gap length 0:00:01.98

Peak level 100.0 %
Extraction speed 5.1 X
Track quality 99.9 %
Test CRC 7E391606
Copy CRC 7E391606
Accurately ripped (confidence 6) [5593C5B0] (AR v2)
Copy OK

Track 5

Filename H:\Music Rips\Jade Valerie\Bittersweet Symphony\05 - Living By Numbers.wav

Pre-gap length 0:00:01.98

Peak level 98.8 %
Extraction speed 6.6 X
Track quality 100.0 %
Test CRC 0E886519
Copy CRC 0E886519
Accurately ripped (confidence 6) [C36AC963] (AR v2)
Copy OK

Track 6

Filename H:\Music Rips\Jade Valerie\Bittersweet Symphony\06 - The Last.wav

Pre-gap length 0:00:01.98

Peak level 98.7 %
Extraction speed 6.9 X
Track quality 100.0 %
Test CRC 437F74EF
Copy CRC 437F74EF
Accurately ripped (confidence 6) [D2F8E35C] (AR v2)
Copy OK

Track 7

Filename H:\Music Rips\Jade Valerie\Bittersweet Symphony\07 - We Can Run.wav

Pre-gap length 0:00:01.98

Peak level 98.7 %
Extraction speed 7.2 X
Track quality 100.0 %
Test CRC 746B1701
Copy CRC 746B1701
Accurately ripped (confidence 6) [3D60409C] (AR v2)
Copy OK

Track 8

Filename H:\Music Rips\Jade Valerie\Bittersweet Symphony\08 - Stuck With You.wav

Pre-gap length 0:00:01.98

Peak level 98.7 %
Extraction speed 6.1 X
Track quality 99.9 %
Test CRC 677BDA6F
Copy CRC 677BDA6F
Accurately ripped (confidence 6) [21BDB4FA] (AR v2)
Copy OK

Track 9

Filename H:\Music Rips\Jade Valerie\Bittersweet Symphony\09 - Lucky Lady.wav

Pre-gap length 0:00:01.98

Peak level 98.8 %
Extraction speed 7.8 X
Track quality 100.0 %
Test CRC 33BE6926
Copy CRC 33BE6926
Accurately ripped (confidence 6) [4A0EE081] (AR v2)
Copy OK

Track 10

Filename H:\Music Rips\Jade Valerie\Bittersweet Symphony\10 - Piece Of Love.wav

Pre-gap length 0:00:01.98

Peak level 98.3 %
Extraction speed 6.5 X
Track quality 99.9 %
Test CRC F7BDE9E3
Copy CRC F7BDE9E3
Accurately ripped (confidence 6) [1076353F] (AR v2)
Copy OK

Track 11

Filename H:\Music Rips\Jade Valerie\Bittersweet Symphony\11 - Always Mine.wav

Pre-gap length 0:00:01.98

Peak level 98.8 %
Extraction speed 8.4 X
Track quality 100.0 %
Test CRC 69736BA8
Copy CRC 69736BA8
Accurately ripped (confidence 6) [D0D63C91] (AR v2)
Copy OK

Track 12

Filename H:\Music Rips\Jade Valerie\Bittersweet Symphony\12 - Undone.wav

Pre-gap length 0:00:01.98

Peak level 98.8 %
Extraction speed 7.3 X
Track quality 99.9 %
Test CRC 8023C1C6
Copy CRC 8023C1C6
Accurately ripped (confidence 6) [FAFB6BF6] (AR v2)
Copy OK

Track 13

Filename H:\Music Rips\Jade Valerie\Bittersweet Symphony\13 - No, You Don't.wav

Pre-gap length 0:00:01.98

Peak level 98.8 %
Extraction speed 8.5 X
Track quality 100.0 %
Test CRC 0D082A96
Copy CRC 0D082A96
Accurately ripped (confidence 6) [B9815A8C] (AR v2)
Copy OK

Track 14

Filename H:\Music Rips\Jade Valerie\Bittersweet Symphony\14 - Empty Pages.wav

Pre-gap length 0:00:01.98

Peak level 98.3 %
Extraction speed 9.1 X
Track quality 100.0 %
Test CRC 38FF09D3
Copy CRC 38FF09D3
Accurately ripped (confidence 6) [BE25A592] (AR v2)
Copy OK


All tracks accurately ripped

No errors occurred

End of status report

–– CUETools DB Plugin V2.1.6

[CTDB TOCID: .Dg3WT2dXvpdLnPmc8iOdzvjMh0-] found
Submit result: .Dg3WT2dXvpdLnPmc8iOdzvjMh0- has been confirmed
Track | CTDB Status
1 | (4/4) Accurately ripped
2 | (4/4) Accurately ripped
3 | (4/4) Accurately ripped
4 | (4/4) Accurately ripped
5 | (4/4) Accurately ripped
6 | (4/4) Accurately ripped
7 | (4/4) Accurately ripped
8 | (4/4) Accurately ripped
9 | (4/4) Accurately ripped
10 | (4/4) Accurately ripped
11 | (4/4) Accurately ripped
12 | (4/4) Accurately ripped
13 | (4/4) Accurately ripped
14 | (4/4) Accurately ripped


==== Log checksum F00E7E30588D20EDFFC06BA0F77B4D216D795EF50719ADA9A10CDD9F37F9D1E7 ====


Exact Audio Copy V1.1 from 23. June 2015

EAC extraction logfile from 9. September 2016, 16:22

Jade Valerie / Out of The Box

Used drive : HL-DT-STBD-RE BH16NS40 Adapter: 1 ID: 0

Read mode : Secure
Utilize accurate stream : Yes
Defeat audio cache : Yes
Make use of C2 pointers : No

Read offset correction : 6
Overread into Lead-In and Lead-Out : No
Fill up missing offset samples with silence : Yes
Delete leading and trailing silent blocks : No
Null samples used in CRC calculations : Yes
Used interface : Native Win32 interface for Win NT & 2000
Gap handling : Appended to previous track

Used output format : User Defined Encoder
Selected bitrate : 1024 kBit/s
Quality : High
Add ID3 tag : No
Command line compressor : C:\Program Files (x86)\Exact Audio Copy\Flac\flac.exe
Additional command line options : -8 -e -V -T "ARTIST=%artist%" -T "TITLE=%title%" -T "ALBUM=%albumtitle%" -T "DATE=%year%" -T "TRACKNUMBER=%tracknr%" -T "GENRE=%genre%" -T "PERFORMER=%albuminterpret%" -T "COMPOSER=%composer%" %haslyrics%–tag-from-file=LYRICS="%lyricsfile%"%haslyrics% -T "ALBUMARTIST=%albumartist%" -T "DISCNUMBER=%cdnumber%" -T "TOTALDISCS=%totalcds%" -T "TOTALTRACKS=%numtracks%" -T "COMMENT=%comment%" %source% -o %dest%


TOC of the extracted CD

Track | Start | Length | Start sector | End sector
––––––––––––––––––––––––––––-
1 | 0:00.00 | 3:39.36 | 0 | 16460
2 | 3:39.36 | 3:17.57 | 16461 | 31292
3 | 6:57.18 | 3:16.66 | 31293 | 46058
4 | 10:14.09 | 3:05.20 | 46059 | 59953
5 | 13:19.29 | 3:08.10 | 59954 | 74063
6 | 16:27.39 | 3:47.22 | 74064 | 91110
7 | 20:14.61 | 3:04.10 | 91111 | 104920
8 | 23:18.71 | 4:20.23 | 104921 | 124443


Track 1

Filename G:\WhatCD\EAC rips\Out of The Box\01 - Tuned Up.wav

Pre-gap length 0:00:02.00

Peak level 99.9 %
Extraction speed 2.0 X
Track quality 99.9 %
Test CRC 7D80502D
Copy CRC 7D80502D
Accurately ripped (confidence 3) [5731CBDC] (AR v2)
Copy OK

Track 2

Filename G:\WhatCD\EAC rips\Out of The Box\02 - Just Another Day.wav

Pre-gap length 0:00:01.98

Peak level 99.9 %
Extraction speed 1.9 X
Track quality 100.0 %
Test CRC F5A3C5CC
Copy CRC F5A3C5CC
Accurately ripped (confidence 3) [92E834D2] (AR v2)
Copy OK

Track 3

Filename G:\WhatCD\EAC rips\Out of The Box\03 - Show Me.wav

Pre-gap length 0:00:01.98

Peak level 99.9 %
Extraction speed 1.8 X
Track quality 99.9 %
Test CRC 3C0F8032
Copy CRC 3C0F8032
Accurately ripped (confidence 3) [6D65EA69] (AR v2)
Copy OK

Track 4

Filename G:\WhatCD\EAC rips\Out of The Box\04 - Uh Lala.wav

Pre-gap length 0:00:02.00

Peak level 99.9 %
Extraction speed 1.9 X
Track quality 99.9 %
Test CRC 0E92A3EE
Copy CRC 0E92A3EE
Accurately ripped (confidence 3) [CEEDA1A3] (AR v2)
Copy OK

Track 5

Filename G:\WhatCD\EAC rips\Out of The Box\05 - Crush.wav

Pre-gap length 0:00:02.00

Peak level 99.9 %
Extraction speed 1.7 X
Track quality 100.0 %
Test CRC 55DE8CA2
Copy CRC 55DE8CA2
Accurately ripped (confidence 3) [8E7DFF6F] (AR v2)
Copy OK

Track 6

Filename G:\WhatCD\EAC rips\Out of The Box\06 - Mr. Pay Me.wav

Pre-gap length 0:00:02.00

Peak level 99.9 %
Extraction speed 1.4 X
Track quality 100.0 %
Test CRC 677D8425
Copy CRC 677D8425
Accurately ripped (confidence 3) [BEBD61F0] (AR v2)
Copy OK

Track 7

Filename G:\WhatCD\EAC rips\Out of The Box\07 - You Don't Know Me.wav

Pre-gap length 0:00:01.98

Peak level 99.8 %
Extraction speed 1.5 X
Track quality 100.0 %
Test CRC D7BCDFAC
Copy CRC D7BCDFAC
Accurately ripped (confidence 3) [A5EAFA66] (AR v2)
Copy OK

Track 8

Filename G:\WhatCD\EAC rips\Out of The Box\08 - Goodbye.wav

Pre-gap length 0:00:01.98

Peak level 99.9 %
Extraction speed 1.4 X
Track quality 99.9 %
Test CRC CBFC16F5
Copy CRC CBFC16F5
Accurately ripped (confidence 3) [A9D2C57C] (AR v2)
Copy OK


All tracks accurately ripped

No errors occurred

End of status report

–– CUETools DB Plugin V2.1.6

[CTDB TOCID: 15mDIEPnmfLoJ1l2_vzsLIH4AQI-] found
Submit result: 15mDIEPnmfLoJ1l2_vzsLIH4AQI- has been confirmed
Track | CTDB Status
1 | (3/3) Accurately ripped
2 | (3/3) Accurately ripped
3 | (3/3) Accurately ripped
4 | (3/3) Accurately ripped
5 | (3/3) Accurately ripped
6 | (3/3) Accurately ripped
7 | (3/3) Accurately ripped
8 | (3/3) Accurately ripped


==== Log checksum B8592AB3723F3B3AF392744C947F63B2CFBC157B1600145F9985AA11632FB586 ====


Tracklist:
Out Of The Box
1 Tuned Up 3:39
2 Just Another Day 3:17
3 Show Me 3:16
4 Uh LaLa 3:05
5 Crush 3:08
6 Mr. Pay Me 3:47
7 You Don't Know Me 3:04
8 Goodbye 4:20

Bittersweet Symphony
1 Unbreakable 3:41
2 Like A Bird 3:40
3 Out In The Sea 3:31
4 Razorman 3:44
5 Living By Numbers 3:44
6 The Last 3:23
7 We Can Run 3:41
8 Stuck With You 3:43
9 Lucky Lady 3:15
10 Piece Of Love 3:19
11 Always Mine 3:45
12 Undone 4:12
13 No You Don't 2:52
14 Empty Pages 3:18

Thanks to the original ripper