Tags
Language
Tags

Jaime Martín, Gävle Symphony Orchestram - Brahms-Schoenberg: Piano Quartet; Parry: Elegy for Brahms (2019)

Posted By: ArlegZ
Jaime Martín, Gävle Symphony Orchestram - Brahms-Schoenberg: Piano Quartet; Parry: Elegy for Brahms (2019)

Jaime Martín, Gävle Symphony Orchestram - Brahms-Schoenberg: Piano Quartet; Parry: Elegy for Brahms (2019)
EAC | FLAC | Image (Cue & Log) ~ 259 Mb | Total time: 53:13 | Scans included
Classical | Label: Ondine | # ODE 1314-2 | Recorded: 2017

This new recording by Gävle Symphony Orchestra with conductor Jaime Martín is a tribute to the work of Johannes Brahms (18331897). The art of Brahms has inspired countless of artists and composers since the 19th century up to our times. Arnold Schoenberg was one of the composers who greatly admired Brahms work. Schoenberg was particularly fond of Brahms 1st Piano Quartet (Op. 25) and when Otto Klemperer suggested him to orchestrate it in 1937, Schoenberg took the task without hesitation. Schoenberg regarded his reworking of the Piano Quartet often dubbed as Brahms Fifth as an act of homage to Brahms, and he believed he had finally succeeded in addressing the composers concerns about the original score. No wonder that Schoenbergs masterful arrangement has remained in the concert programs of symphony orchestras. English composer Sir Hubert Parry (1848-1918) wrote his orchestral work, Elegy for Johannes Brahms, in 1897 in memory of his recently deceased musical idol. This short symphonic movement, which makes some overt references to Brahmss music, was never performed in the composers lifetime, and only received its premiere after Parrys own death in 1918. After that, it languished unplayed until it was again resurrected in 1977. After decades of neglect, this recording is a manifestation of the recent growing interest in Parrys music. Gävle Symphony Orchestra, founded in Sweden in 1912, has a long and exciting history. Since 2013, the orchestra has enjoyed a fruitful musical partnership with principal conductor Jaime Martín, but the orchestra has also collaborated regularly with renowned international conductors. This is the orchestras fourth album to be released by Ondine. Jaime Martín became the Artistic Director and Principal Conductor of Gävle Symphony Orchestra in 2013. During recent years orchestral engagements have led the rising conductor to collaborate with several prominent orchestras around the world. Martín is also Chief Conductor of the Orquestra de Cadaqués and known for his active career as solo flautist.

Performer:
Gävle Symphony Orchestra
Jaime Martín, cobductor

Track List:
Johannes Brahms
Piano Quartet No. 1 in G Minor, Op. 25 (arr. A. Schoenberg for orchestra)
01. I. Allegro
02. II. Intermezzo
03. III. Andante con moto
04. IV. Rondo alla zingarese
Hubert Parry
05. Elegy for Brahms (1897)


Exact Audio Copy V1.3 from 2. September 2016

EAC extraction logfile from 19. May 2019, 13:05

Gävle Symphony Orchestra, Jaime Martín / Brahms-Schoenberg - Piano Quartet; Parry - Elegy for Brahms

Used drive : ASUS SDRW-08U7M-U Adapter: 1 ID: 0

Read mode : Secure
Utilize accurate stream : Yes
Defeat audio cache : Yes
Make use of C2 pointers : No

Read offset correction : 6
Overread into Lead-In and Lead-Out : No
Fill up missing offset samples with silence : Yes
Delete leading and trailing silent blocks : No
Null samples used in CRC calculations : Yes
Used interface : Native Win32 interface for Win NT & 2000

Used output format : User Defined Encoder
Selected bitrate : 128 kBit/s
Quality : High
Add ID3 tag : No
Command line compressor : C:\Program Files (x86)\Exact Audio Copy\Flac\flac.exe
Additional command line options : -V -8 -T "Date=%year%" -T "Genre=%genre%" %source%


TOC of the extracted CD

Track | Start | Length | Start sector | End sector
––––––––––––––––––––––––––––-
1 | 0:00.00 | 13:35.00 | 0 | 61124
2 | 13:35.00 | 8:13.00 | 61125 | 98099
3 | 21:48.00 | 9:04.00 | 98100 | 138899
4 | 30:52.00 | 9:15.00 | 138900 | 180524
5 | 40:07.00 | 13:06.03 | 180525 | 239477


Range status and errors

Selected range

Filename C:\temp\Brahms-Schoenberg - Piano Quartet; Parry - Elegy for Brahms - 2019\Brahms-Schoenberg - Piano Quartet; Parry - Elegy for Brahms.wav

Peak level 98.6 %
Extraction speed 4.4 X
Range quality 100.0 %
Test CRC 2E61BD4E
Copy CRC 2E61BD4E
Copy OK

No errors occurred


AccurateRip summary

Track 1 not present in database
Track 2 not present in database
Track 3 not present in database
Track 4 not present in database
Track 5 not present in database

None of the tracks are present in the AccurateRip database

End of status report

==== Log checksum 34B921705D26C6DA0686591047A340B35B22032EC560DBFED83E04D4CE52CEE1 ====

Jaime Martín, Gävle Symphony Orchestram - Brahms-Schoenberg: Piano Quartet; Parry: Elegy for Brahms (2019)

Thanks to the original releaser