Tags
Language
Tags

James Bowman, Michael Chance, Mark Caudle, Robert King - François Couperin: Leçons de Ténèbres (1991)

Posted By: ArlegZ
James Bowman, Michael Chance, Mark Caudle, Robert King - François Couperin: Leçons de Ténèbres (1991)

James Bowman, Michael Chance, Mark Caudle, Robert King - François Couperin: Leçons de Ténèbres (1991)
EAC | FLAC | Image (Cue & Log) ~ 230 Mb | Total time: 63:09 | Scans included
Classical | Label: Hyperion | CDA66474 | Recorded: 1990

Couperin’s Trois Leçons de Ténèbres are amongst the small amount of the composer’s sacred music that was published during his lifetime. They are intensely personal, depicting the prophet Jeremiah’s bitter anguish in settings that are quite unique. Also included here are Couperin’s joyful motets Laetentur caeli and Venite, exsultemus Domino, and a remarkable Magnificat.
Countertenors James Bowman and Michael Chance are celebrated not only as great soloists but matchless duettists.

Performer:
James Bowman, countertenor
Michael Chance, countertenor
Mark Caudle, viola da gamba
Robert King, organ

Track List:
01. Laetentur coeli, Motet de Saint-Barthélemy, for 2 treble voices & continuo (Elévations)
02. Venite exultemus Domino, motet for 2 voices & continuo
Leçons de Ténèbres, for treble voice (or 2 treble voices) & continuo
03. Première Leçon
04. Deuxième Leçon
05. Troisième Leçon
06. Magnificat, motet for 2 sopranos & continuo


Exact Audio Copy V1.3 from 2. September 2016

EAC extraction logfile from 21. March 2020, 15:36

James Bowman, Michael Chance, Robert King, Mark Caudle / Couperin: Leçons de Ténèbres; Magnificat; Motets (Bowman, Chance, King)

Used drive : HL-DT-STDVD-RAM GH22LS30 Adapter: 1 ID: 0

Read mode : Secure
Utilize accurate stream : Yes
Defeat audio cache : No
Make use of C2 pointers : No

Read offset correction : 102
Overread into Lead-In and Lead-Out : No
Fill up missing offset samples with silence : Yes
Delete leading and trailing silent blocks : No
Null samples used in CRC calculations : Yes
Used interface : Native Win32 interface for Win NT & 2000

Used output format : User Defined Encoder
Selected bitrate : 1024 kBit/s
Quality : High
Add ID3 tag : No
Command line compressor : C:\Program Files (x86)\Exact Audio Copy\FLAC\FLAC.EXE
Additional command line options : -8 -e -p -V -T "ARTIST=%artist%" -T "ALBUMARTIST=%albumartist%" -T "ALBUM=%albumtitle%" -T "DATE=%year%" -T "GENRE=%genre%" -T "COMMENT=%comment%" -T "PERFORMER=%albuminterpret%" -T "COMPOSER=%composer%" %source% -o %dest%


TOC of the extracted CD

Track | Start | Length | Start sector | End sector
––––––––––––––––––––––––––––-
1 | 0:00.00 | 6:56.62 | 0 | 31261
2 | 6:56.62 | 5:18.13 | 31262 | 55124
3 | 12:15.00 | 15:45.12 | 55125 | 126011
4 | 28:00.12 | 12:31.63 | 126012 | 182399
5 | 40:32.00 | 11:11.00 | 182400 | 232724
6 | 51:43.00 | 11:26.00 | 232725 | 284174


Range status and errors

Selected range

Filename M:\Rips\The King's Consort\Couperin - Leçons de Ténèbres; Magnificat; Motets (Bowman, Chance, King)\lossless\Couperin - Leçons de Ténèbres (Bowman, Chance, King).wav

Peak level 95.8 %
Extraction speed 11.6 X
Range quality 100.0 %
Test CRC 5D746288
Copy CRC 5D746288
Copy OK

No errors occurred


AccurateRip summary

Track 1 cannot be verified as accurate (confidence 5) [BF9D50EF], AccurateRip returned [511ADCBC] (AR v2)
Track 2 cannot be verified as accurate (confidence 5) [937E0716], AccurateRip returned [7D91C761] (AR v2)
Track 3 cannot be verified as accurate (confidence 5) [ACD41138], AccurateRip returned [93D621EC] (AR v2)
Track 4 cannot be verified as accurate (confidence 5) [64AA6451], AccurateRip returned [AC01A786] (AR v2)
Track 5 cannot be verified as accurate (confidence 5) [870C0E1D], AccurateRip returned [A0F4AFFF] (AR v2)
Track 6 cannot be verified as accurate (confidence 5) [C82C1788], AccurateRip returned [9C51447C] (AR v2)

No tracks could be verified as accurate
You may have a different pressing from the one(s) in the database

End of status report

–– CUETools DB Plugin V2.1.6

[CTDB TOCID: CmjdvFaco2HWhCD3eym08uBZWas-] found
Submit result: CmjdvFaco2HWhCD3eym08uBZWas- has been confirmed
Track | CTDB Status
1 | (16/16) Accurately ripped
2 | (16/16) Accurately ripped
3 | (16/16) Accurately ripped
4 | (16/16) Accurately ripped
5 | (15/16) Accurately ripped
6 | (12/16) Accurately ripped


==== Log checksum F4247FC6C43E2C99D45A81D732DEF454D7072F612CF915491B1B61B163DFB754 ====

James Bowman, Michael Chance, Mark Caudle, Robert King - François Couperin: Leçons de Ténèbres (1991)

Thanks to the original releaser