Tags
Language
Tags

Jay Hoggard - Overview (1989) {Vogue}

Posted By: tiburon
Jay Hoggard - Overview (1989) {Vogue}

Jay Hoggard - Overview (1989) {Vogue}
EAC 1.0b3 | FLAC tracks level 8 | Cue+Log+M3U | Full Scans 600dpi | 265MB + 5% Recovery
MP3 CBR 320 Kbps | 118MB + 5% Recovery
Genre: Jazz, Post-Bop

After years of playing avant-garde jazz and post-bop music, Jay Hoggard returned to the straight-ahead bop-oriented tradition with this CD. On "Put on a Happy Face," a swinging "Blues Bags," and a medium-tempo version of Thelonious Monk's "Ruby, My Dear," Hoggard emulates Milt Jackson a bit. He also sounds quite comfortable playing Afro-Cuban jazz on "Aguacate" and his solos on the two other swinging originals is very much hard bop, although never overly predictable. Pianist Geri Allen, sounding more conservative than usual, is nevertheless still a stimulating soloist and accompanist, with bassist Ed Rozie and drummer Frederick Waits keeping the music swinging and moving. This out of print CD serves as a fine introduction to Jay Hoggard, and may lead listeners to seek out his earlier and more adventurous recordings.
Track List
01. Put on a Happy Face 7:50
02. Overview 8:12
03. Aguacate 4:56
04. Blues Bags 6:52
05. Ruby, My Dear 7:27
06. Convergence 7:04

musicians
Jay Hoggard - vibraphone
Geri Allen - piano
Frederick Waits - drums
Ed Rozie - bass

Produced by Joe Fields


Exact Audio Copy V1.0 beta 3 from 29. August 2011

EAC extraction logfile from 27. March 2014, 12:12

Jay Hoggard / Overview

Used drive : PHILIPS SPD3400CC Adapter: 3 ID: 0

Read mode : Secure
Utilize accurate stream : Yes
Defeat audio cache : Yes
Make use of C2 pointers : No

Read offset correction : 6
Overread into Lead-In and Lead-Out : No
Fill up missing offset samples with silence : Yes
Delete leading and trailing silent blocks : No
Null samples used in CRC calculations : Yes
Used interface : Installed external ASPI interface
Gap handling : Appended to previous track

Used output format : User Defined Encoder
Selected bitrate : 1024 kBit/s
Quality : High
Add ID3 tag : No
Command line compressor : C:\Program Files (x86)\Exact Audio Copy\FLAC\FLAC.EXE
Additional command line options : -8 -V -T "ARTIST=%artist%" -T "TITLE=%title%" -T "ALBUM=%albumtitle%" -T "DATE=%year%" -T "TRACKNUMBER=%tracknr%" -T "TOTALTRACKS=%numtracks%" -T "GENRE=%genre%" -T "ALBUM ARTIST=%albumartist%" -T "ALBUMARTIST=%albumartist%" -T "COMMENT=EAC V1.0 beta 3, Secure Mode, Test & Copy, AccurateRip, FLAC -8" %source%


TOC of the extracted CD

Track | Start | Length | Start sector | End sector
––––––––––––––––––––––––––––-
1 | 0:00.32 | 7:53.35 | 32 | 35541
2 | 7:53.67 | 8:14.10 | 35542 | 72601
3 | 16:08.02 | 4:57.10 | 72602 | 94886
4 | 21:05.12 | 7:56.03 | 94887 | 130589
5 | 29:01.15 | 7:30.07 | 130590 | 164346
6 | 36:31.22 | 7:06.60 | 164347 | 196356


Track 1

Filename C:\Rips\01 Put on a Happy Face.wav

Pre-gap length 0:00:02.32

Peak level 78.8 %
Extraction speed 2.0 X
Track quality 100.0 %
Test CRC 79BE5AA5
Copy CRC 79BE5AA5
Track not present in AccurateRip database
Copy OK

Track 2

Filename C:\Rips\02 Overview.wav

Pre-gap length 0:00:01.72

Peak level 83.0 %
Extraction speed 2.4 X
Track quality 100.0 %
Test CRC 4E3F5B09
Copy CRC 4E3F5B09
Track not present in AccurateRip database
Copy OK

Track 3

Filename C:\Rips\03 Aguacate.wav

Peak level 100.0 %
Extraction speed 2.3 X
Track quality 99.9 %
Test CRC 44F14471
Copy CRC 44F14471
Track not present in AccurateRip database
Copy OK

Track 4

Filename C:\Rips\04 Blues Bags.wav

Peak level 100.0 %
Extraction speed 3.0 X
Track quality 100.0 %
Test CRC 42383600
Copy CRC 42383600
Track not present in AccurateRip database
Copy OK

Track 5

Filename C:\Rips\05 Ruby, My Dear.wav

Peak level 96.7 %
Extraction speed 3.2 X
Track quality 100.0 %
Test CRC 9090B981
Copy CRC 9090B981
Track not present in AccurateRip database
Copy OK

Track 6

Filename C:\Rips\06 Convergence.wav

Pre-gap length 0:00:00.40

Peak level 100.0 %
Extraction speed 3.4 X
Track quality 100.0 %
Test CRC 806DCC4D
Copy CRC 806DCC4D
Track not present in AccurateRip database
Copy OK


None of the tracks are present in the AccurateRip database

No errors occurred

End of status report

==== Log checksum 16D2269A60F163CA56140D580599DA77A7C631D6B9E5C09597E1D5FD4188CF74 ====


––––––––––––––––––––––––––––––––––––––––
Analyzed: Jay Hoggard / Overview
––––––––––––––––––––––––––––––––––––––––

DR Peak RMS Duration Track
––––––––––––––––––––––––––––––––––––––––
DR12 -2.07 dB -20.24 dB 7:53 01-Put on a Happy Face
DR15 -1.61 dB -21.72 dB 8:14 02-Overview
DR13 0.00 dB -17.19 dB 4:57 03-Aguacate
DR13 0.00 dB -17.86 dB 7:56 04-Blues Bags
DR13 -0.29 dB -19.57 dB 7:30 05-Ruby, My Dear
DR13 0.00 dB -16.49 dB 7:07 06-Convergence
––––––––––––––––––––––––––––––––––––––––

Number of tracks: 6
Official DR value: DR13

Samplerate: 44100 Hz
Channels: 2
Bits per sample: 16
Bitrate: 932 kbps
Codec: FLAC
================================================================================

Jay Hoggard - Overview (1989) {Vogue}
Jay Hoggard - Overview (1989) {Vogue}
Jay Hoggard - Overview (1989) {Vogue}


Thanks to the original ripper