Tags
Language
Tags

Jazz Icons: Art Blakey & The Jazz Messengers Live in '58 (2006)

Posted By: RSU75
Jazz Icons: Art Blakey & The Jazz Messengers Live in '58 (2006)

Jazz Icons: Art Blakey & The Jazz Messengers Live in '58 (2006)
DVDRip | MKV | AVC 720x480, ~ 1.7 Mbps | 0hr 54mn | 733 MB
English: AC3, 2 ch, 192 kbps | Subtitles: None
Genre: Documentary, Music, Jazz


Jazz Icons: Art Blakey & The Jazz Messengers features what many consider to be one of the finest line-ups in the history of jazz—Art Blakey (Drums), Bobby Timmons (Piano), Jymie Merritt (Bass), Benny Golson (Sax) and the legendary trumpet player, Lee Morgan. Lost for nearly 50 years, this historic 55-minute concert, filmed in Belgium in 1958, one month to the day after they recorded their masterpiece Moanin', is the only known visual document of this influential band who were together for only six months.

Extras:
- None




General
Unique ID : 253456938429206452940353331657037688444 (0xBEAE07DE241603859582DC83AD51AE7C)
Complete name : F:\JazzIcons.ArtBlakey.TheJazzMessengersLiveIn58.2006.Dr\JazzIcons.ArtBlakey.TheJazzMessengersLiveIn58.2006.Dr.mkv
Format : Matroska
Format version : Version 4
File size : 733 MiB
Duration : 54 min 15 s
Overall bit rate : 1 887 kb/s
Movie name : Release RSU75
Encoded date : UTC 2021-03-28 16:55:37
Writing application : mkvmerge v8.3.0 ('Over the Horizon') 64bit
Writing library : libebml v1.3.1 + libmatroska v1.4.2

Video
ID : 1
Format : AVC
Format/Info : Advanced Video Codec
Format profile : High@L4.1
Format settings : CABAC / 4 Ref Frames
Format settings, CABAC : Yes
Format settings, Reference fra : 4 frames
Codec ID : V_MPEG4/ISO/AVC
Duration : 54 min 15 s
Bit rate : 1 700 kb/s
Width : 720 pixels
Height : 480 pixels
Display aspect ratio : 4:3
Frame rate mode : Constant
Frame rate : 23.976 (23976/1000) FPS
Color space : YUV
Chroma subsampling : 4:2:0
Bit depth : 8 bits
Scan type : Progressive
Bits/(Pixel*Frame) : 0.205
Stream size : 657 MiB (90%)
Writing library : x264 core 148 r2643 5c65704
Encoding settings : cabac=1 / ref=4 / deblock=1:0:0 / analyse=0x3:0x113 / me=umh / subme=8 / psy=1 / psy_rd=1.00:0.00 / mixed_ref=1 / me_range=24 / chroma_me=1 / trellis=1 / 8x8dct=1 / cqm=0 / deadzone=21,11 / fast_pskip=1 / chroma_qp_offset=-2 / threads=3 / lookahead_threads=1 / sliced_threads=0 / nr=0 / decimate=1 / interlaced=0 / bluray_compat=0 / constrained_intra=0 / bframes=3 / b_pyramid=0 / b_adapt=2 / b_bias=0 / direct=3 / weightb=1 / open_gop=0 / weightp=2 / keyint=250 / keyint_min=25 / scenecut=40 / intra_refresh=0 / rc_lookahead=40 / rc=abr / mbtree=1 / bitrate=1700 / ratetol=1.0 / qcomp=0.60 / qpmin=10 / qpmax=51 / qpstep=4 / ip_ratio=1.41 / aq=1:1.00
Language : English
Default : Yes
Forced : No

Audio
ID : 2
Format : AC-3
Format/Info : Audio Coding 3
Commercial name : Dolby Digital
Codec ID : A_AC3
Duration : 54 min 15 s
Bit rate mode : Constant
Bit rate : 192 kb/s
Channel(s) : 2 channels
Channel layout : L R
Sampling rate : 44.1 kHz
Frame rate : 28.711 FPS (1536 SPF)
Compression mode : Lossy
Stream size : 74.5 MiB (10%)
Title : Stereo
Language : English
Service kind : Complete Main
Default : Yes
Forced : No

Menu
00:00:00.000 : en:Chapter 01
00:07:44.931 : en:Chapter 02
00:21:50.542 : en:Chapter 03
00:28:35.380 : en:Chapter 04
00:36:26.284 : en:Chapter 05
00:43:22.166 : en:Chapter 06
00:52:11.661 : en:Chapter 07
00:52:41.525 : en:Chapter 08




Screenshots DVDRip (click to enlarge to original size):

Jazz Icons: Art Blakey & The Jazz Messengers Live in '58 (2006)






More in My Blog



If you like this release please visit my blog
In it you will find Jazz Icons and other releases