Tags
Language
Tags

Jazz Icons: Louis Armstrong Live in '59 (2006)

Posted By: RSU75
Jazz Icons: Louis Armstrong Live in '59 (2006)

Jazz Icons: Louis Armstrong Live in '59 (2006)
DVDRip | MKV | AVC 720x480, ~ 1.7 Mbps | 0hr 53mn | 732 MB
English: AC3, 2 ch, 256 kbps | Subtitles: None
Genre: Documentary, Music, Jazz


Jazz Icons: Louis Armstrong is one of the only known complete Armstrong concerts from the 1950s to be captured on film. This 55-minute set, filmed in Belgium in 1959, features many of Satchmo's greatest songs including “Mack the Knife”, “When It's Sleepy Time down South” and “Stompin' at the Savoy,” backed by his stellar band the All-Stars, featuring Trummy Young, Peanuts Hucko, Billy Kyle, Danny Barcelona and Mort Herbert.

Tracklist:

Live in Belgium 1959

Trumpet, Vocal : Louis Armstrong
Clarinet: Peanuts Hucko
Trombone: Trummy Young
Piano: Billy Kyle
Bass: Mort Herbert
Drums: Danny Barcelona
Vocal: Velma Middleton

Songs:
When It’s Sleepy Time Down South
(Back Home Again In) Indiana
Basin Street Blues
Tiger Rag
Now You Has Jazz
Love Is Just Around The Corner
C’Est Si Bon
Mack The Knife
Stompin’ At The Savoy
St. Louis Blues
Ko-Ko-Mo (I Love You So)
When The Saints Go Marching In
La Vie En Rose

Extras:
- None




General
Unique ID : 173432371799527764166300293344644819993 (0x8279DC1CFF99D18FA014F2A8EF4FEC19)
Complete name : F:\JazzIcons.LouisArmstrongLiveIn'59.2006.Dr\JazzIcons.LouisArmstrongLiveIn'59.2006.Dr.mkv
Format : Matroska
Format version : Version 4
File size : 732 MiB
Duration : 53 min 2 s
Overall bit rate : 1 928 kb/s
Movie name : Release RSU75
Encoded date : UTC 2021-10-20 18:35:16
Writing application : mkvmerge v8.3.0 ('Over the Horizon') 64bit
Writing library : libebml v1.3.1 + libmatroska v1.4.2

Video
ID : 1
Format : AVC
Format/Info : Advanced Video Codec
Format profile : High@L4.1
Format settings : CABAC / 4 Ref Frames
Format settings, CABAC : Yes
Format settings, Reference fra : 4 frames
Codec ID : V_MPEG4/ISO/AVC
Duration : 53 min 2 s
Bit rate : 1 700 kb/s
Width : 720 pixels
Height : 480 pixels
Display aspect ratio : 4:3
Frame rate mode : Constant
Frame rate : 23.976 (23976/1000) FPS
Color space : YUV
Chroma subsampling : 4:2:0
Bit depth : 8 bits
Scan type : Progressive
Bits/(Pixel*Frame) : 0.205
Stream size : 634 MiB (87%)
Writing library : x264 core 148 r2643 5c65704
Encoding settings : cabac=1 / ref=4 / deblock=1:0:0 / analyse=0x3:0x113 / me=umh / subme=8 / psy=1 / psy_rd=1.00:0.00 / mixed_ref=1 / me_range=24 / chroma_me=1 / trellis=1 / 8x8dct=1 / cqm=0 / deadzone=21,11 / fast_pskip=1 / chroma_qp_offset=-2 / threads=3 / lookahead_threads=1 / sliced_threads=0 / nr=0 / decimate=1 / interlaced=0 / bluray_compat=0 / constrained_intra=0 / bframes=3 / b_pyramid=0 / b_adapt=2 / b_bias=0 / direct=3 / weightb=1 / open_gop=0 / weightp=2 / keyint=250 / keyint_min=25 / scenecut=40 / intra_refresh=0 / rc_lookahead=40 / rc=abr / mbtree=1 / bitrate=1700 / ratetol=1.0 / qcomp=0.60 / qpmin=10 / qpmax=51 / qpstep=4 / ip_ratio=1.41 / aq=1:1.00
Language : English
Default : Yes
Forced : No

Audio
ID : 2
Format : AC-3
Format/Info : Audio Coding 3
Commercial name : Dolby Digital
Codec ID : A_AC3
Duration : 52 min 59 s
Bit rate mode : Constant
Bit rate : 256 kb/s
Channel(s) : 2 channels
Channel layout : L R
Sampling rate : 44.1 kHz
Frame rate : 28.711 FPS (1536 SPF)
Compression mode : Lossy
Stream size : 97.0 MiB (13%)
Title : Stereo
Language : English
Service kind : Complete Main
Default : Yes
Forced : No

Menu
00:00:00.000 : en:Chapter 01
00:03:19.465 : en:Chapter 02
00:07:37.790 : en:Chapter 03
00:13:56.135 : en:Chapter 04
00:17:19.872 : en:Chapter 05
00:22:52.371 : en:Chapter 06
00:25:56.454 : en:Chapter 07
00:28:26.571 : en:Chapter 08
00:31:28.119 : en:Chapter 09
00:37:09.260 : en:Chapter 10
00:43:03.747 : en:Chapter 11
00:45:42.039 : en:Chapter 12
00:49:43.146 : en:Chapter 13




Screenshots DVDRip (click to enlarge to original size):

Jazz Icons: Louis Armstrong Live in '59 (2006)







More in My Blog



If you like this release please visit my blog
In it you will find Jazz Icons and other releases