Tags
Language
Tags

Jazz Icons: Thelonious Monk Live in '66 (2006)

Posted By: RSU75
Jazz Icons: Thelonious Monk Live in '66 (2006)

Jazz Icons: Thelonious Monk Live in '66 (2006)
DVDRip | MKV | AVC 720x480, ~ 1.7 Mbps | 1hr 01mn | 860 MB
English: AC3, 2 ch, 256 kbps | Subtitles: None
Genre: Documentary, Music, Jazz


Jazz Icons: Thelonious Monk features two intimate concerts filmed three days apart in Scandanavia in the Spring of 1966 with a legendary quartet that includes drummer Ben Riley, bassist Larry Gales and tenor saxophonist Charlie Rouse. Thelonious Monk revolutionized jazz with his innovative musical approach and these remarkable performances allow viewers the rare opportunity to experience Monk’s genius up close on his classic compositions “Blue Monk,” “Epistrophy” and “’Round Midnight.”

Extras:
- None




General
Unique ID : 243003203563780782321077305289376243144 (0xB6D0B6F228AC43E4A14FAE7ABDAB9DC8)
Complete name : F:\JazzIcons.TheloniousMonk.LiveIn66.2006.Dr\JazzIcons.TheloniousMonk.LiveIn66.2006.Dr.mkv
Format : Matroska
Format version : Version 4
File size : 860 MiB
Duration : 1 h 1 min
Overall bit rate : 1 951 kb/s
Movie name : Release RSU75
Encoded date : UTC 2021-05-28 03:18:04
Writing application : mkvmerge v8.3.0 ('Over the Horizon') 64bit
Writing library : libebml v1.3.1 + libmatroska v1.4.2

Video
ID : 1
Format : AVC
Format/Info : Advanced Video Codec
Format profile : High@L4.1
Format settings : CABAC / 4 Ref Frames
Format settings, CABAC : Yes
Format settings, Reference fra : 4 frames
Codec ID : V_MPEG4/ISO/AVC
Duration : 1 h 1 min
Bit rate : 1 700 kb/s
Width : 720 pixels
Height : 480 pixels
Display aspect ratio : 4:3
Frame rate mode : Constant
Frame rate : 23.976 (23976/1000) FPS
Color space : YUV
Chroma subsampling : 4:2:0
Bit depth : 8 bits
Scan type : Progressive
Bits/(Pixel*Frame) : 0.205
Stream size : 747 MiB (87%)
Writing library : x264 core 148 r2643 5c65704
Encoding settings : cabac=1 / ref=4 / deblock=1:0:0 / analyse=0x3:0x113 / me=umh / subme=8 / psy=1 / psy_rd=1.00:0.00 / mixed_ref=1 / me_range=24 / chroma_me=1 / trellis=1 / 8x8dct=1 / cqm=0 / deadzone=21,11 / fast_pskip=1 / chroma_qp_offset=-2 / threads=3 / lookahead_threads=1 / sliced_threads=0 / nr=0 / decimate=1 / interlaced=0 / bluray_compat=0 / constrained_intra=0 / bframes=3 / b_pyramid=0 / b_adapt=2 / b_bias=0 / direct=3 / weightb=1 / open_gop=0 / weightp=2 / keyint=250 / keyint_min=25 / scenecut=40 / intra_refresh=0 / rc_lookahead=40 / rc=abr / mbtree=1 / bitrate=1700 / ratetol=1.0 / qcomp=0.60 / qpmin=10 / qpmax=51 / qpstep=4 / ip_ratio=1.41 / aq=1:1.00
Language : English
Default : Yes
Forced : No

Audio
ID : 2
Format : AC-3
Format/Info : Audio Coding 3
Commercial name : Dolby Digital
Codec ID : A_AC3
Duration : 1 h 1 min
Bit rate mode : Constant
Bit rate : 256 kb/s
Channel(s) : 2 channels
Channel layout : L R
Sampling rate : 44.1 kHz
Frame rate : 28.711 FPS (1536 SPF)
Compression mode : Lossy
Stream size : 113 MiB (13%)
Title : Stereo
Language : English
Service kind : Complete Main
Default : Yes
Forced : No

Menu
00:00:00.000 : en:Chapter 01
00:15:38.704 : en:Chapter 02
00:25:48.146 : en:Chapter 03
00:32:40.058 : en:Chapter 04
00:50:25.655 : en:Chapter 05
00:55:53.616 : en:Chapter 06
01:00:08.237 : en:Chapter 07




Screenshots DVDRip (click to enlarge to original size):

Jazz Icons: Thelonious Monk Live in '66 (2006)






More in My Blog



If you like this release please visit my blog
In it you will find Jazz Icons and other releases