Tags
Language
Tags

Jean-Louis Charbonnier - Marin Marais: Pièces de Viole: Troisième Livre (1711) - Première Partie (2004)

Posted By:
Jean-Louis Charbonnier - Marin Marais: Pièces de Viole: Troisième Livre (1711) - Première Partie (2004)

Jean-Louis Charbonnier, Paul Rousseau, Mauricio Buraglia, Pierre Trocellier - Marin Marais: Pièces de Viole: Troisième Livre (1711) - Première Partie (2004)
EAC | FLAC | Image (Cue & Log) ~ 753 Mb | Total time: 77:59+72:02 | Scans included
Classical | Label: Pierre Verany | # PV 704101/02 | Recorded: 2003

Le Troisième Livre de Pièces de Viole (1711) « composées par M. Marais, Ordinaire de la musique de la Chambre du Roy » outre le fait qu’elles sont composées pendant les dix années les plus prolifiques de son compositeur, montre parfaitement le style français du début du XVIIIe siècle. Reconnu, il est joué dans toutes les cours d’Europe, où l’on s’imprègne du « goût français ». Si la majorité des morceaux sont issus de la danse, avec des sarabandes, menuets, gigues, allemandes, préludes ou fantaisies, s’y ajoutent des pièces plus originales ne provenant pas de ce domaine : une Fugue gay, le Moulinet, la Saillie du Café, les Contrefaiseurs…
Jean-Louis Charbonnier, spécialiste et passionné du répertoire des XVIIe et XVIIIe siècles, excelle ici en gambiste. Instigateur du projet de l’enregistrement de l’œuvre réunissant la majorité des pièces de viole de Marin Marais, outre le travail de recherche afin de restaurer ce patrimoine, les enregistrements se sont échelonnés entre 1992 et 2004. C’est d’ailleurs suite au tournage du film d’Alain Corneau Tous les matins du monde auquel Jean-Louis Charbonnier et Mauricio Buraglia ont participé qu’a été entreprise cette série d’enregistrement. Ce ne sont pas des morceaux, des rondeaux, ou l’écoute de motifs repris alternant tonalités majeures et mineures, mais la recherche du ressenti et du sensible. La maîtrise des instruments est parfaite, la sobriété au rendez-vous sans pour autant perdre de charme. L’écoute notamment des gigues et préludes fait parfaitement ressortir sonorité, sensation, expressivité. On peut définitivement parler d’Esthétique.

Performer:
Jean-Louis Charbonnier, basse de viole
Paul Rousseau, besse de viole
Mauricio Buragia, théorbe
Pierre Trocelier, clavecin

Track List:
CD1:
Suite en Fa majeur
01.Prélude 26
02. Fantaisie 27
03. Allemande 28 et son Double 29
04. Courante 30 et son Double 31
05. Sarabande 33
06. Gavotte la Badine 32
07. Gigue 34
08. Menuet 35
09. 2ème Menuet 36
10. Rondeau 37
11. Suite en Fa majeur - Chaconne 38
12. Bourasque 39
Suite en La majeur
13. Prélude 14
14. Fantaisie 21
15. Allemande 15 et son Double 16
16. Allemande la Gotique 25
17. Courante 18
18. Sarabande 17
19. Gavotte 19
20. Gigue l'Inconstante 20
21. Menuets 22 et 23
22. Rondeau 24
Suite en La mineur
23. Prélude 11
24. Fantaisie 1
25. Allemande 2
26. Courante 3
27. Sarabande 4
28. Gigue 5 et son Double 6
29. Gavotte 7
30. Menuets 8 et 9
31. Rondeau 10
32. Gavotte la Petite 12
33. Grand ballet 13
CD2:
Suite en Si bémol majeur
01. Prélude 59
02. Fantaisie 60
03. Allemande 61
04. 2ème Allemande 62
05. Courante 63 et Double 64
06. Sarabande 65
07. Gigue 66
08. 2ème Gigue 67
09. Gavotte 68
10. Gavotte La Sincope 69
11. Gavotte du goût du théorbe 70
12. Rondeau 71
13. Bourée Paysane 72 et Double 73
14. Menuet 74
15. 2ème Menuet 75
Suite en Ré majeur
16. Prelude 40
17. Fantaisie 41
18. Allemande 42
19. Courante 43
20. Sarabande 44
21. La folette 45
22. Gigue 46
23. 2ème Gigue 47
24. Bourée Paysane 48
25. Gavotte 49
26. Petit Rondeau 50
27. La Chanterelle Menuet 51
28. La Trompette Menuet 52 et Double 53
29. Rondeau 54
30. Plainte 55
31. Chaconne 56
32. La Brillante 57
33. Charivary 58


Exact Audio Copy V1.1 from 23. June 2015

EAC extraction logfile from 21. October 2019, 20:35

Jean-Louis Charbonnier / M.Marais - Pieces de Viole - 3' Livre 1711 - I p - CD1

Used drive : HL-DT-STDVDRAM GSA-4040B Adapter: 1 ID: 2

Read mode : Secure
Utilize accurate stream : Yes
Defeat audio cache : Yes
Make use of C2 pointers : No

Read offset correction : 667
Overread into Lead-In and Lead-Out : No
Fill up missing offset samples with silence : Yes
Delete leading and trailing silent blocks : No
Null samples used in CRC calculations : Yes
Used interface : Native Win32 interface for Win NT & 2000

Used output format : User Defined Encoder
Selected bitrate : 896 kBit/s
Quality : High
Add ID3 tag : No
Command line compressor : F:\Program Files\Exact Audio Copy\Flac\flac.exe
Additional command line options : -8 -V -T "ARTIST=%artist%" -T "TITLE=%title%" -T "ALBUM=%albumtitle%" -T "DATE=%year%" -T "TRACKNUMBER=%tracknr%" -T "GENRE=%genre%" -T "PERFORMER=%albuminterpret%" -T "COMPOSER=%composer%" %haslyrics%–tag-from-file=LYRICS="%lyricsfile%"%haslyrics% -T "ALBUMARTIST=%albumartist%" -T "DISCNUMBER=%cdnumber%" -T "TOTALDISCS=%totalcds%" -T "TOTALTRACKS=%numtracks%" -T "COMMENT=%comment%" %source% -o %dest%


TOC of the extracted CD

Track | Start | Length | Start sector | End sector
––––––––––––––––––––––––––––-
1 | 0:00.00 | 1:58.30 | 0 | 8879
2 | 1:58.30 | 0:56.10 | 8880 | 13089
3 | 2:54.40 | 4:24.10 | 13090 | 32899
4 | 7:18.50 | 3:17.07 | 32900 | 47681
5 | 10:35.57 | 2:36.00 | 47682 | 59381
6 | 13:11.57 | 1:58.48 | 59382 | 68279
7 | 15:10.30 | 1:26.52 | 68280 | 74781
8 | 16:37.07 | 0:48.28 | 74782 | 78409
9 | 17:25.35 | 0:55.22 | 78410 | 82556
10 | 18:20.57 | 4:28.48 | 82557 | 102704
11 | 22:49.30 | 3:05.60 | 102705 | 116639
12 | 25:55.15 | 1:31.12 | 116640 | 123476
13 | 27:26.27 | 2:16.60 | 123477 | 133736
14 | 29:43.12 | 0:45.55 | 133737 | 137166
15 | 30:28.67 | 5:29.60 | 137167 | 161901
16 | 35:58.52 | 3:26.50 | 161902 | 177401
17 | 39:25.27 | 1:11.73 | 177402 | 182799
18 | 40:37.25 | 2:35.20 | 182800 | 194444
19 | 43:12.45 | 0:56.45 | 194445 | 198689
20 | 44:09.15 | 1:33.37 | 198690 | 205701
21 | 45:42.52 | 2:11.48 | 205702 | 215574
22 | 47:54.25 | 2:51.65 | 215575 | 228464
23 | 50:46.15 | 3:12.40 | 228465 | 242904
24 | 53:58.55 | 1:36.50 | 242905 | 250154
25 | 55:35.30 | 2:33.22 | 250155 | 261651
26 | 58:08.52 | 1:26.53 | 261652 | 268154
27 | 59:35.30 | 3:16.72 | 268155 | 282926
28 | 62:52.27 | 3:05.20 | 282927 | 296821
29 | 65:57.47 | 3:09.22 | 296822 | 311018
30 | 69:06.69 | 1:31.21 | 311019 | 317864
31 | 70:38.15 | 2:14.07 | 317865 | 327921
32 | 72:52.22 | 1:08.47 | 327922 | 333068
33 | 74:00.69 | 4:38.33 | 333069 | 353951


Range status and errors

Selected range

Filename Q:\Music\PV7041101-02\cd1\CD1.wav

Peak level 89.5 %
Extraction speed 4.5 X
Range quality 99.9 %
Test CRC 716B425A
Copy CRC 716B425A
Copy OK

No errors occurred


AccurateRip summary

Track 1 accurately ripped (confidence 4) [5DF384AC] (AR v2)
Track 2 accurately ripped (confidence 4) [51D82B7D] (AR v2)
Track 3 accurately ripped (confidence 4) [1C2E4979] (AR v2)
Track 4 accurately ripped (confidence 4) [D19C616D] (AR v2)
Track 5 accurately ripped (confidence 4) [6168ECC3] (AR v2)
Track 6 accurately ripped (confidence 4) [18A7076B] (AR v2)
Track 7 accurately ripped (confidence 4) [FA804E8F] (AR v2)
Track 8 accurately ripped (confidence 4) [385C9B95] (AR v2)
Track 9 accurately ripped (confidence 4) [42A3A22D] (AR v2)
Track 10 accurately ripped (confidence 4) [552D1E6B] (AR v2)
Track 11 accurately ripped (confidence 4) [086F204F] (AR v2)
Track 12 accurately ripped (confidence 4) [2C4FDF18] (AR v2)
Track 13 accurately ripped (confidence 4) [9B7D5806] (AR v2)
Track 14 accurately ripped (confidence 4) [7F9605D9] (AR v2)
Track 15 accurately ripped (confidence 4) [CAC9B878] (AR v2)
Track 16 accurately ripped (confidence 4) [B49E79DD] (AR v2)
Track 17 accurately ripped (confidence 4) [FCBB6B2B] (AR v2)
Track 18 accurately ripped (confidence 4) [42BFA1E6] (AR v2)
Track 19 accurately ripped (confidence 4) [E5EC0DD3] (AR v2)
Track 20 accurately ripped (confidence 4) [B55961BD] (AR v2)
Track 21 accurately ripped (confidence 4) [EDA6B49F] (AR v2)
Track 22 accurately ripped (confidence 4) [729C35BA] (AR v2)
Track 23 accurately ripped (confidence 4) [ADB4D120] (AR v2)
Track 24 accurately ripped (confidence 4) [E6D12D3A] (AR v2)
Track 25 accurately ripped (confidence 4) [28723160] (AR v2)
Track 26 accurately ripped (confidence 4) [A359DD63] (AR v2)
Track 27 accurately ripped (confidence 4) [9C851F99] (AR v2)
Track 28 accurately ripped (confidence 4) [7511FB11] (AR v2)
Track 29 accurately ripped (confidence 4) [8B058493] (AR v2)
Track 30 accurately ripped (confidence 4) [8F2E1670] (AR v2)
Track 31 accurately ripped (confidence 4) [1DE51FFC] (AR v2)
Track 32 accurately ripped (confidence 4) [E1BF0846] (AR v2)
Track 33 accurately ripped (confidence 4) [B2538BF5] (AR v2)

All tracks accurately ripped

End of status report

–– CUETools DB Plugin V2.1.6

[CTDB TOCID: Bjt8LmHIgmRwXBcuIbstd0wmL48-] found
Submit result: Bjt8LmHIgmRwXBcuIbstd0wmL48- has been confirmed
Track | CTDB Status
1 | (4/4) Accurately ripped
2 | (4/4) Accurately ripped
3 | (4/4) Accurately ripped
4 | (4/4) Accurately ripped
5 | (4/4) Accurately ripped
6 | (4/4) Accurately ripped
7 | (4/4) Accurately ripped
8 | (4/4) Accurately ripped
9 | (4/4) Accurately ripped
10 | (4/4) Accurately ripped
11 | (4/4) Accurately ripped
12 | (4/4) Accurately ripped
13 | (4/4) Accurately ripped
14 | (4/4) Accurately ripped
15 | (4/4) Accurately ripped
16 | (4/4) Accurately ripped
17 | (4/4) Accurately ripped
18 | (4/4) Accurately ripped
19 | (4/4) Accurately ripped
20 | (4/4) Accurately ripped
21 | (4/4) Accurately ripped
22 | (4/4) Accurately ripped
23 | (4/4) Accurately ripped
24 | (4/4) Accurately ripped
25 | (4/4) Accurately ripped
26 | (4/4) Accurately ripped
27 | (4/4) Accurately ripped
28 | (4/4) Accurately ripped
29 | (4/4) Accurately ripped
30 | (4/4) Accurately ripped
31 | (4/4) Accurately ripped
32 | (4/4) Accurately ripped
33 | (4/4) Accurately ripped


==== Log checksum 0E3147F668D373C2D2D4EEE3474919E3E55A6BDADCE3D555EEB0383521C8E302 ====


Exact Audio Copy V1.1 from 23. June 2015

EAC extraction logfile from 21. October 2019, 23:11

Jean-Louis Charbonnier / M.Marais - Pieces de Viole - 3' Livre 1711 - I p - CD2

Used drive : HL-DT-STDVDRAM GSA-4040B Adapter: 1 ID: 2

Read mode : Secure
Utilize accurate stream : Yes
Defeat audio cache : Yes
Make use of C2 pointers : No

Read offset correction : 667
Overread into Lead-In and Lead-Out : No
Fill up missing offset samples with silence : Yes
Delete leading and trailing silent blocks : No
Null samples used in CRC calculations : Yes
Used interface : Native Win32 interface for Win NT & 2000

Used output format : User Defined Encoder
Selected bitrate : 896 kBit/s
Quality : High
Add ID3 tag : No
Command line compressor : F:\Program Files\Exact Audio Copy\Flac\flac.exe
Additional command line options : -8 -V -T "ARTIST=%artist%" -T "TITLE=%title%" -T "ALBUM=%albumtitle%" -T "DATE=%year%" -T "TRACKNUMBER=%tracknr%" -T "GENRE=%genre%" -T "PERFORMER=%albuminterpret%" -T "COMPOSER=%composer%" %haslyrics%–tag-from-file=LYRICS="%lyricsfile%"%haslyrics% -T "ALBUMARTIST=%albumartist%" -T "DISCNUMBER=%cdnumber%" -T "TOTALDISCS=%totalcds%" -T "TOTALTRACKS=%numtracks%" -T "COMMENT=%comment%" %source% -o %dest%


TOC of the extracted CD

Track | Start | Length | Start sector | End sector
––––––––––––––––––––––––––––-
1 | 0:00.00 | 1:58.30 | 0 | 8879
2 | 1:58.30 | 1:27.40 | 8880 | 15444
3 | 3:25.70 | 3:31.12 | 15445 | 31281
4 | 6:57.07 | 2:15.23 | 31282 | 41429
5 | 9:12.30 | 2:18.05 | 41430 | 51784
6 | 11:30.35 | 2:42.37 | 51785 | 63971
7 | 14:12.72 | 2:23.55 | 63972 | 74751
8 | 16:36.52 | 1:19.30 | 74752 | 80706
9 | 17:56.07 | 1:40.23 | 80707 | 88229
10 | 19:36.30 | 1:06.30 | 88230 | 93209
11 | 20:42.60 | 1:36.30 | 93210 | 100439
12 | 22:19.15 | 5:02.39 | 100440 | 123128
13 | 27:21.54 | 1:18.38 | 123129 | 129016
14 | 28:40.17 | 1:04.13 | 129017 | 133829
15 | 29:44.30 | 2:56.55 | 133830 | 147084
16 | 32:41.10 | 1:32.00 | 147085 | 153984
17 | 34:13.10 | 0:44.47 | 153985 | 157331
18 | 34:57.57 | 2:52.50 | 157332 | 170281
19 | 37:50.32 | 1:32.60 | 170282 | 177241
20 | 39:23.17 | 2:34.08 | 177242 | 188799
21 | 41:57.25 | 0:47.62 | 188800 | 192386
22 | 42:45.12 | 1:11.25 | 192387 | 197736
23 | 43:56.37 | 1:34.15 | 197737 | 204801
24 | 45:30.52 | 1:10.08 | 204802 | 210059
25 | 46:40.60 | 1:17.15 | 210060 | 215849
26 | 47:58.00 | 3:10.15 | 215850 | 230114
27 | 51:08.15 | 0:51.47 | 230115 | 233986
28 | 51:59.62 | 1:49.60 | 233987 | 242221
29 | 53:49.47 | 3:58.62 | 242222 | 260133
30 | 57:48.34 | 3:51.31 | 260134 | 277489
31 | 61:39.65 | 2:51.70 | 277490 | 290384
32 | 64:31.60 | 5:08.72 | 290385 | 313556
33 | 69:40.57 | 2:55.65 | 313557 | 326746


Range status and errors

Selected range

Filename Q:\Music\PV7041101-02\cd2\CD2.wav

Peak level 76.1 %
Extraction speed 4.6 X
Range quality 99.9 %
Test CRC 5BB69A7A
Copy CRC 5BB69A7A
Copy OK

No errors occurred


AccurateRip summary

Track 1 accurately ripped (confidence 4) [1EBE6995] (AR v2)
Track 2 accurately ripped (confidence 4) [067823A4] (AR v2)
Track 3 accurately ripped (confidence 4) [2B039954] (AR v2)
Track 4 accurately ripped (confidence 4) [79E5DF66] (AR v2)
Track 5 accurately ripped (confidence 4) [2A693464] (AR v2)
Track 6 accurately ripped (confidence 4) [96633A33] (AR v2)
Track 7 accurately ripped (confidence 4) [192EE5DE] (AR v2)
Track 8 accurately ripped (confidence 4) [BD4F88D2] (AR v2)
Track 9 accurately ripped (confidence 4) [719FE502] (AR v2)
Track 10 accurately ripped (confidence 4) [FF292C2A] (AR v2)
Track 11 accurately ripped (confidence 4) [0D1E7A36] (AR v2)
Track 12 accurately ripped (confidence 4) [54FF1B1B] (AR v2)
Track 13 accurately ripped (confidence 4) [AAFF2353] (AR v2)
Track 14 accurately ripped (confidence 4) [E6AA8A5A] (AR v2)
Track 15 accurately ripped (confidence 4) [DA618215] (AR v2)
Track 16 accurately ripped (confidence 4) [6916FBA0] (AR v2)
Track 17 accurately ripped (confidence 4) [305A5E59] (AR v2)
Track 18 accurately ripped (confidence 4) [7669EC56] (AR v2)
Track 19 accurately ripped (confidence 4) [5333D0D3] (AR v2)
Track 20 accurately ripped (confidence 4) [2BDAFDBB] (AR v2)
Track 21 accurately ripped (confidence 4) [DF9848B2] (AR v2)
Track 22 accurately ripped (confidence 4) [D55AC402] (AR v2)
Track 23 accurately ripped (confidence 4) [97ABCA73] (AR v2)
Track 24 accurately ripped (confidence 4) [1C6DFEFA] (AR v2)
Track 25 accurately ripped (confidence 4) [10482FDF] (AR v2)
Track 26 accurately ripped (confidence 4) [F03AB305] (AR v2)
Track 27 accurately ripped (confidence 4) [9EE23D1E] (AR v2)
Track 28 accurately ripped (confidence 4) [F7C487EF] (AR v2)
Track 29 accurately ripped (confidence 4) [ACD02781] (AR v2)
Track 30 accurately ripped (confidence 4) [9B872FFE] (AR v2)
Track 31 accurately ripped (confidence 4) [ECCA49EA] (AR v2)
Track 32 accurately ripped (confidence 4) [32240DA9] (AR v2)
Track 33 accurately ripped (confidence 4) [80CAA354] (AR v2)

All tracks accurately ripped

End of status report

–– CUETools DB Plugin V2.1.6

[CTDB TOCID: 2d9mwOrF_JOuvAmlCKBIfGZQIzo-] found
Submit result: 2d9mwOrF_JOuvAmlCKBIfGZQIzo- has been confirmed
Track | CTDB Status
1 | (4/4) Accurately ripped
2 | (4/4) Accurately ripped
3 | (4/4) Accurately ripped
4 | (4/4) Accurately ripped
5 | (4/4) Accurately ripped
6 | (4/4) Accurately ripped
7 | (4/4) Accurately ripped
8 | (4/4) Accurately ripped
9 | (4/4) Accurately ripped
10 | (4/4) Accurately ripped
11 | (4/4) Accurately ripped
12 | (4/4) Accurately ripped
13 | (4/4) Accurately ripped
14 | (4/4) Accurately ripped
15 | (4/4) Accurately ripped
16 | (4/4) Accurately ripped
17 | (4/4) Accurately ripped
18 | (4/4) Accurately ripped
19 | (4/4) Accurately ripped
20 | (4/4) Accurately ripped
21 | (4/4) Accurately ripped
22 | (4/4) Accurately ripped
23 | (4/4) Accurately ripped
24 | (4/4) Accurately ripped
25 | (4/4) Accurately ripped
26 | (4/4) Accurately ripped
27 | (4/4) Accurately ripped
28 | (4/4) Accurately ripped
29 | (4/4) Accurately ripped
30 | (4/4) Accurately ripped
31 | (4/4) Accurately ripped
32 | (4/4) Accurately ripped
33 | (4/4) Accurately ripped


==== Log checksum ACDD6F7908404E27835F2FDBD932D81E102056D2A38DAF577B5ED7E390130FA8 ====

Jean-Louis Charbonnier - Marin Marais: Pièces de Viole: Troisième Livre (1711) - Première Partie (2004)

Thanks to the original releaser