Tags
Language
Tags

Jean Yves Ossonce - Chabrier: Briséïs (1995)

Posted By:
Jean Yves Ossonce - Chabrier: Briséïs (1995)

Jean Yves Ossonce - Chabrier: Briséïs (1995)
EAC | FLAC (image+.cue, log) | Covers Included | 01:14:08 | 351 MB
Genre: Classical | Label: Hyperion | Catalog: 66803

Chabrier’s extraordinary, if incomplete, opera is surely a precursor to Salome and approaches even that most lurid work in the gloriously opulent sensuality of its music. Performed at the Edinburgh Festival by some of the greatest singers of the day and recorded live by Hyperion, this thrilling performance stunned critics and public alike. A genuinely wonderful discovery.

Jean Yves Ossonce - Chabrier: Briséïs (1995)

Track List:

01. Chabrier: Briséïs - Sc. 1 #1 La Nef Légère A Pris L'Essor [0:01:21.17]
02. Chabrier: Briséïs - Sc. 1 #2 Ramez Plus Doucement [0:01:46.58]
03. Chabrier: Briséïs - Sc. 1 #3 Jetez L'Ancre [0:00:34.32]
04. Chabrier: Briséïs - Sc. 1 #4 Comme Un Voyageur [0:01:45.63]
05. Chabrier: Briséïs - Sc. 1 #5 Dans Le Tranquille Gynécée [0:01:50.17]
06. Chabrier: Briséïs - Sc. 1 #6 Viens! [0:01:29.30]
07. Chabrier: Briséïs - Sc. 1 #7 Viens! [0:01:20.38]
08. Chabrier: Briséïs - Sc. 1 #8 Eros! Chaleur! [0:01:17.22]
09. Chabrier: Briséïs - Sc. 2 #01 Enfant! [0:02:41.50]
10. Chabrier: Briséïs - Sc. 2 #02 Là-Bas, Dans Les Cités D'Asie [0:00:59.55]
11. Chabrier: Briséïs - Sc. 2 #03 Par L'Auguste Kypris [0:01:05.48]
12. Chabrier: Briséïs - Sc. 2 #04 Par L'Auguste Kypris [0:01:32.60]
13. Chabrier: Briséïs - Sc. 2 #05 Si L'On Couchait [0:02:38.67]
14. Chabrier: Briséïs - Sc. 2 #06 Tu Dis Vrai [0:00:49.22]
15. Chabrier: Briséïs - Sc. 2 #07 Deux Astres Pareils [0:00:51.46]
16. Chabrier: Briséïs - Sc. 2 #08 Demain Ce Sera La Journée [0:01:26.67]
17. Chabrier: Briséïs - Sc. 2 #09 Il Faut Partir! [0:01:28.45]
18. Chabrier: Briséïs - Sc. 2 #10 Hermès Se Mire Dans La Mer [0:04:10.25]
19. Chabrier: Briséïs - Sc. 3 #1 Hélas! [0:04:28.73]
20. Chabrier: Briséïs - Sc. 3 #2 Mère, Qui Me Portais [0:00:32.57]
21. Chabrier: Briséïs - Sc. 3 #3 Jésus, Jésus [0:01:39.03]
22. Chabrier: Briséïs - Sc. 3 #4 Quel Est Donc Le Dieu [0:01:08.47]
23. Chabrier: Briséïs - Sc. 3 #5 Ainsi Qu'Un Semeur [0:02:13.55]
24. Chabrier: Briséïs - Sc. 3 #6 Je Veux Vivre [0:02:11.00]
25. Chabrier: Briséïs - Sc. 3 #7 Mère Au Cher Coeur [0:03:54.33]
26. Chabrier: Briséïs - Sc. 4 #01 Phoïbos, Entends Vers Toi [0:01:41.37]
27. Chabrier: Briséïs - Sc. 4 #02 Roi Magnanime De L'Été [0:02:10.53]
28. Chabrier: Briséïs - Sc. 4 #03 Celui Qui Sauve [0:00:47.02]
29. Chabrier: Briséïs - Sc. 4 #04 Rédempteur Des Péchés [0:01:55.73]
30. Chabrier: Briséïs - Sc. 4 #05 Ô Trésor Des Saintes Sagesses [0:01:29.15]
31. Chabrier: Briséïs - Sc. 4 #06 C'Est L'Un Des Prêtres [0:01:02.27]
32. Chabrier: Briséïs - Sc. 4 #07 Ô Briséïs, Écoute! [0:02:24.18]
33. Chabrier: Briséïs - Sc. 4 #08 Pan Est Mort! [0:04:25.65]
34. Chabrier: Briséïs - Sc. 4 #09 Mon Dieu, Pardonnez-Leur [0:02:21.65]
35. Chabrier: Briséïs - Sc. 4 #10 Ton Dieu Sauvera-T-Il Ma Mère? [0:02:24.52]
36. Chabrier: Briséïs - Sc. 4 #11 Viens! [0:00:37.45]
37. Chabrier: Briséïs - Sc. 4 #12 Pour Que Christ Me Rende La Vie [0:02:45.05]
38. Chabrier: Briséïs - Sc. 4 #13 Pitié, Ma Mère! [0:05:03.00]

Performers:
Joan Rodgers
Mark Padmore
Simon Keenlyside
Michael George
Kathryn Harries

Chorus of the Scottish Opera
BBC Scottish Symphony Orchestra
Jean Yves Ossonce - conductor

Exact Audio Copy V1.0 beta 3 from 29. August 2011

EAC extraction logfile from 26. February 2014, 13:51

Jean-Yves Ossonce / Chabrier - Briséïs - Jean Yves Ossonce

Used drive : TSSTcorpCDDVDW SH-222BB Adapter: 2 ID: 1

Read mode : Secure
Utilize accurate stream : Yes
Defeat audio cache : Yes
Make use of C2 pointers : No

Read offset correction : 6
Overread into Lead-In and Lead-Out : No
Fill up missing offset samples with silence : Yes
Delete leading and trailing silent blocks : No
Null samples used in CRC calculations : Yes
Used interface : Native Win32 interface for Win NT & 2000

Used output format : User Defined Encoder
Selected bitrate : 896 kBit/s
Quality : High
Add ID3 tag : No
Command line compressor : C:\Program Files\Exact Audio Copy\FLAC\FLAC.EXE
Additional command line options : -8 -V -T "TITLE=%title%" -T "ARTIST=%artist%" -T "ALBUMARTIST=%albumartist%" -T "ALBUM=%albumtitle%" -T "DATE=%year%" -T "TRACKNUMBER=%tracknr%" -T "TRACKTOTAL=%numtracks%" -T "GENRE=%genre%" -T "COMMENT=%comment%" -T "PERFORMER=%albuminterpret%" -T "COMPOSER=%composer%" %source% -o %dest%


TOC of the extracted CD

Track | Start | Length | Start sector | End sector
––––––––––––––––––––––––––––-
1 | 0:00.00 | 1:21.17 | 0 | 6091
2 | 1:21.17 | 1:46.58 | 6092 | 14099
3 | 3:08.00 | 0:34.32 | 14100 | 16681
4 | 3:42.32 | 1:45.63 | 16682 | 24619
5 | 5:28.20 | 1:50.17 | 24620 | 32886
6 | 7:18.37 | 1:29.30 | 32887 | 39591
7 | 8:47.67 | 1:20.38 | 39592 | 45629
8 | 10:08.30 | 1:17.22 | 45630 | 51426
9 | 11:25.52 | 2:41.50 | 51427 | 63551
10 | 14:07.27 | 0:59.55 | 63552 | 68031
11 | 15:07.07 | 1:05.48 | 68032 | 72954
12 | 16:12.55 | 1:32.60 | 72955 | 79914
13 | 17:45.40 | 2:38.67 | 79915 | 91831
14 | 20:24.32 | 0:49.22 | 91832 | 95528
15 | 21:13.54 | 0:51.46 | 95529 | 99399
16 | 22:05.25 | 1:26.67 | 99400 | 105916
17 | 23:32.17 | 1:28.45 | 105917 | 112561
18 | 25:00.62 | 4:10.25 | 112562 | 131336
19 | 29:11.12 | 4:28.73 | 131337 | 151509
20 | 33:40.10 | 0:32.57 | 151510 | 153966
21 | 34:12.67 | 1:39.03 | 153967 | 161394
22 | 35:51.70 | 1:08.47 | 161395 | 166541
23 | 37:00.42 | 2:13.55 | 166542 | 176571
24 | 39:14.22 | 2:11.00 | 176572 | 186396
25 | 41:25.22 | 3:54.33 | 186397 | 203979
26 | 45:19.55 | 1:41.37 | 203980 | 211591
27 | 47:01.17 | 2:10.53 | 211592 | 221394
28 | 49:11.70 | 0:47.02 | 221395 | 224921
29 | 49:58.72 | 1:55.73 | 224922 | 233619
30 | 51:54.70 | 1:29.15 | 233620 | 240309
31 | 53:24.10 | 1:02.27 | 240310 | 244986
32 | 54:26.37 | 2:24.18 | 244987 | 255804
33 | 56:50.55 | 4:25.65 | 255805 | 275744
34 | 61:16.45 | 2:21.65 | 275745 | 286384
35 | 63:38.35 | 2:24.52 | 286385 | 297236
36 | 66:03.12 | 0:37.45 | 297237 | 300056
37 | 66:40.57 | 2:45.05 | 300057 | 312436
38 | 69:25.62 | 5:03.00 | 312437 | 335161


Range status and errors

Selected range

Filename E:\3000\[3132] Chabrier - Briséïs - Jean Yves Ossonce\Chabrier - Briséïs - Jean Yves Ossonce.wav

Peak level 100.0 %
Extraction speed 4.7 X
Range quality 99.9 %
Test CRC 6A7AFB4B
Copy CRC 6A7AFB4B
Copy OK

No errors occurred


AccurateRip summary

Track 1 accurately ripped (confidence 5) [B457BBC5] (AR v2)
Track 2 accurately ripped (confidence 5) [FF2F4B23] (AR v2)
Track 3 accurately ripped (confidence 5) [777DFBF0] (AR v2)
Track 4 accurately ripped (confidence 5) [0CF2B470] (AR v2)
Track 5 accurately ripped (confidence 5) [EB918438] (AR v2)
Track 6 accurately ripped (confidence 5) [57E57E87] (AR v2)
Track 7 accurately ripped (confidence 5) [D8AC0082] (AR v2)
Track 8 accurately ripped (confidence 5) [B5359BD0] (AR v2)
Track 9 accurately ripped (confidence 5) [999604C0] (AR v2)
Track 10 accurately ripped (confidence 5) [DA4402D4] (AR v2)
Track 11 accurately ripped (confidence 5) [C9FFD9E6] (AR v2)
Track 12 accurately ripped (confidence 5) [DDAAB214] (AR v2)
Track 13 accurately ripped (confidence 5) [D2C0CC28] (AR v2)
Track 14 accurately ripped (confidence 5) [84AA8998] (AR v2)
Track 15 accurately ripped (confidence 5) [5650F86D] (AR v2)
Track 16 accurately ripped (confidence 5) [D0586BA2] (AR v2)
Track 17 accurately ripped (confidence 5) [A189F9CD] (AR v2)
Track 18 accurately ripped (confidence 5) [225A66C2] (AR v2)
Track 19 accurately ripped (confidence 5) [0BA26495] (AR v2)
Track 20 accurately ripped (confidence 5) [CA7E612D] (AR v2)
Track 21 cannot be verified as accurate (confidence 5) [CE790D0D], AccurateRip returned [E163E2AB] (AR v2)
Track 22 accurately ripped (confidence 5) [E4B4E22F] (AR v2)
Track 23 accurately ripped (confidence 5) [9CA57D35] (AR v2)
Track 24 accurately ripped (confidence 5) [F4CC8F5E] (AR v2)
Track 25 accurately ripped (confidence 5) [A3F0EB97] (AR v2)
Track 26 accurately ripped (confidence 5) [7A05629D] (AR v2)
Track 27 accurately ripped (confidence 5) [8806C668] (AR v2)
Track 28 accurately ripped (confidence 5) [0FD7E029] (AR v2)
Track 29 accurately ripped (confidence 4) [BC6F2CBD] (AR v2)
Track 30 accurately ripped (confidence 4) [F954CEF9] (AR v2)
Track 31 accurately ripped (confidence 4) [CE3DB55F] (AR v2)
Track 32 accurately ripped (confidence 4) [66229D66] (AR v2)
Track 33 accurately ripped (confidence 4) [A0255F97] (AR v2)
Track 34 accurately ripped (confidence 4) [2FAB30EF] (AR v2)
Track 35 accurately ripped (confidence 5) [4D808F5D] (AR v2)
Track 36 accurately ripped (confidence 4) [62224BD1] (AR v2)
Track 37 accurately ripped (confidence 4) [ED8FB149] (AR v2)
Track 38 accurately ripped (confidence 5) [DF93B9C8] (AR v2)

37 track(s) accurately ripped
1 track(s) could not be verified as accurate

Some tracks could not be verified as accurate

End of status report

==== Log checksum 05C42A7576AD97E9DBE61674D30C8143AE41A3AF012EAADE8B304B1908FC8BFC ====

Thanks to the Original ripper (unknown)!

Welcome to my blog!

Download: