Subcategories

Jean-Luc Ponty - Aurora (1976) {Atlantic}

Posted By: tiburon
Jean-Luc Ponty - Aurora (1976) {Atlantic}

Jean-Luc Ponty - Aurora (1976) {Atlantic}
EAC 0.99pb4 | FLAC Image level 8 | Cue+Log | Full Scans 300dpi | 244MB + 5% Recovery
MP3 CBR 320 Kbps | 87MB + 5% Recovery
Genre: Jazz, Fusion
Jean-Luc Ponty - Aurora (1976) {Atlantic}

Aurora is full of state-of-the-art (for 1975) high-powered fusion that differs surprisingly little from the music that Jean-Luc Ponty has played throughout the '80s and '90s. The violinist's quintet (which includes guitarist Darryl Stuermer, keyboardist Patrice Rushen, bassist Tom Fowler, and drummer Norman Fearrington) displays impeccable musicianship and lots of energy. The group was often so tight that the violin, keyboards, guitar, and (to a lesser extent) the electric bass had similar tones, sometimes making it difficult to tell who was soloing at a particular moment. Listeners open to the sound of electronics and funky grooves should be very impressed by the spirited music which combines the adventure of jazz with the sound of rock.
Track List
01. Is Once Enough?
02. Renaissance
03. Aurora Part I
04. Aurora Part II
05. Passenger Of The Dark
06. Lost Forest
07. Between You And Me
08. Waking Dream

musicians
Jean-Luc Ponty - Electric Violin, Violectra, Acoustic Violin & Autoharp
Darryl Stuermer - Electric & Acoustic Guitars
Patrice Rushen - Electric Piano, Acoustic Piano & Synthesizer
Tom Fowler - Bass
Norman Fearrington - Drums & Percussion

Produced by Jean-Luc Ponty


Exact Audio Copy V0.99 prebeta 4 from 23. January 2008

Отчёт EAC об извлечении, выполненном 26. мая 2009, 20:36

Jean-Luc Ponty / Aurora

Дисковод: PIONEER DVD-RW DVR-108 Adapter: 4 ID: 1

Режим чтения : Достоверность
Использование точного потока : Да
Отключение кэша аудио : Да
Использование указателей C2 : Нет

Коррекция смещения при чтении : 48
Способность читать области Lead-in и Lead-out : Нет
Заполнение пропущенных сэмплов тишиной : Да
Удаление блоков с тишиной в начале и конце : Нет
При вычислениях CRC использовались нулевые сэмплы : Да
Интерфейс : Встроенный Win32-интерфейс для Win NT/2000

Выходной формат : Внутренние WAV-операции
Формат сэмплов : 44.100 Гц; 16 бит; стерео


TOC извлечённого CD

Трек | Старт | Длительность | Начальный сектор | Конечный сектор
––––––––––––––––––––––––––––––––––-
1 | 0:00.32 | 4:59.35 | 32 | 22491
2 | 4:59.67 | 5:49.68 | 22492 | 48734
3 | 10:49.60 | 2:46.10 | 48735 | 61194
4 | 13:35.70 | 6:16.55 | 61195 | 89449
5 | 19:52.50 | 4:18.62 | 89450 | 108861
6 | 24:11.37 | 5:27.25 | 108862 | 133411
7 | 29:38.62 | 5:59.48 | 133412 | 160384
8 | 35:38.35 | 2:25.22 | 160385 | 171281


Характеристики диапазона извлечения и сообщения об ошибках

Выбранный диапазон

Имя файла J:\New Torrents\Jean-Luc Ponty - Aurora\Jean-Luc Ponty - Aurora.wav

Пиковый уровень 100.0 %
Качество диапазона 100.0 %
CRC копии F4B7C60B
Копирование… OK

Ошибок не произошло


AccurateRip: сводка

Трек 1 точное извлечение (доверие 10) [2BBC2FE3]
Трек 2 точное извлечение (доверие 10) [CD7148A1]
Трек 3 точное извлечение (доверие 10) [C8D3D8E8]
Трек 4 точное извлечение (доверие 10) [589B2B52]
Трек 5 точное извлечение (доверие 10) [42A6475F]
Трек 6 точное извлечение (доверие 10) [9D2C009E]
Трек 7 точное извлечение (доверие 10) [1CDF5B37]
Трек 8 точное извлечение (доверие 10) [3A3EBD60]

Все треки извлечены точно

Конец отчёта

Jean-Luc Ponty - Aurora (1976) {Atlantic}
Jean-Luc Ponty - Aurora (1976) {Atlantic}


Thanks to the original ripper