Tags
Language
Tags

Jean Michel Jarre - Oxygene 10 [Maxi-Single] (1997)

Posted By: gribovar
Jean Michel Jarre - Oxygene 10 [Maxi-Single] (1997)

Jean Michel Jarre - Oxygene 10 [Maxi-Single] (1997)
EAC Rip | FLAC (tracks+.cue+log) - 226 MB | MP3 CBR 320 kbps (LAME 3.93) - 86 MB | Covers - 44 MB
Genre: Techno, Trance | RAR 3% Rec. | Label: Epic/Disques Dreyfus (664715 2)

Special version adapted from the Epic/Disques Dreyfus release "Oxygene 7-13".
Tracks 1-3: Remixed by Tokapi at Peak Top Studios D'dorf. Track 4: Remixed by Resistance D (Pascal Feos & Maik Maurice), produced at Plan Of Vision Studios - Frankfurt. Tracks 5 & 6: Remixed, manipulated, melanged and meccanoed by Loop Guru at the Shrine - April 1997.
Tracklist:
01. Oxygene 10 (Sash! Edit II)
02. Oxygene 10 (Sash! Mix II)
03. Oxygene 10 (Sash! RMX (Maxi Version))
04. Oxygene 10 (Resistance D Treatment)
05. Oxygene 10 (Transcengenics 1)
06. Oxygene 10 (Transcengenics 2)

Total time: 35:51

Exact Audio Copy V1.3 from 2. September 2016

EAC extraction logfile from 23. January 2020, 19:36

Jean-Michel Jarre / Oxygène 10

Used drive : PIONEER DVD-RW DVR-215 Adapter: 1 ID: 2

Read mode : Secure
Utilize accurate stream : Yes
Defeat audio cache : Yes
Make use of C2 pointers : No

Read offset correction : 48
Overread into Lead-In and Lead-Out : No
Fill up missing offset samples with silence : Yes
Delete leading and trailing silent blocks : No
Null samples used in CRC calculations : Yes
Used interface : Native Win32 interface for Win NT & 2000
Gap handling : Appended to previous track

Used output format : User Defined Encoder
Selected bitrate : 1024 kBit/s
Quality : High
Add ID3 tag : No
Command line compressor : C:\Program Files (x86)\Exact Audio Copy\FLAC\FLAC.EXE
Additional command line options : -6 -V -T "COMMENT=ripped by RRC" -T "ARTIST=%artist%" -T "TITLE=%title%" -T "ALBUM=%albumtitle%" -T "DATE=%year%" -T "TRACKNUMBER=%tracknr%" -T "GENRE=%genre%" %source%


TOC of the extracted CD

Track | Start | Length | Start sector | End sector
––––––––––––––––––––––––––––-
1 | 0:00.00 | 3:24.52 | 0 | 15351
2 | 3:24.52 | 5:50.73 | 15352 | 41674
3 | 9:15.50 | 6:00.25 | 41675 | 68699
4 | 15:16.00 | 8:35.15 | 68700 | 107339
5 | 23:51.15 | 5:32.40 | 107340 | 132279
6 | 29:23.55 | 6:27.05 | 132280 | 161309


Track 1

Filename E:\RRCLtd Rip\01 - Oxygène 10 (Sash! Edit II).wav

Pre-gap length 0:00:02.00

Peak level 96.2 %
Extraction speed 4.2 X
Track quality 100.0 %
Test CRC A5504659
Copy CRC A5504659
Accurately ripped (confidence 22) [77ABE27D] (AR v2)
Copy OK

Track 2

Filename E:\RRCLtd Rip\02 - Oxygène 10 (Sash! Mix II).wav

Pre-gap length 0:00:01.52

Peak level 95.9 %
Extraction speed 5.1 X
Track quality 100.0 %
Test CRC FF63E536
Copy CRC FF63E536
Accurately ripped (confidence 22) [D9DE863C] (AR v2)
Copy OK

Track 3

Filename E:\RRCLtd Rip\03 - Oxygène 10 (Sash! RMX (Maxi Version)).wav

Pre-gap length 0:00:00.35

Peak level 96.5 %
Extraction speed 5.7 X
Track quality 100.0 %
Test CRC 864561D0
Copy CRC 864561D0
Accurately ripped (confidence 23) [0B6C87EE] (AR v2)
Copy OK

Track 4

Filename E:\RRCLtd Rip\04 - Oxygène 10 (Resistance D Treatment).wav

Pre-gap length 0:00:01.28

Peak level 97.2 %
Extraction speed 6.4 X
Track quality 100.0 %
Test CRC CCD74F36
Copy CRC CCD74F36
Accurately ripped (confidence 22) [95A71975] (AR v2)
Copy OK

Track 5

Filename E:\RRCLtd Rip\05 - Oxygène 10 (Transcengenics 1).wav

Pre-gap length 0:00:00.35

Peak level 81.0 %
Extraction speed 6.7 X
Track quality 100.0 %
Test CRC 5C7DA9BF
Copy CRC 5C7DA9BF
Accurately ripped (confidence 23) [25F09E66] (AR v2)
Copy OK

Track 6

Filename E:\RRCLtd Rip\06 - Oxygène 10 (Transcengenics 2).wav

Pre-gap length 0:00:02.50

Peak level 96.4 %
Extraction speed 7.1 X
Track quality 100.0 %
Test CRC B9F44C42
Copy CRC B9F44C42
Accurately ripped (confidence 23) [F4755C67] (AR v2)
Copy OK


All tracks accurately ripped

No errors occurred

End of status report

–– CUETools DB Plugin V2.1.6

[CTDB TOCID: 8I2cekczdhdA9I4MqyI1oCV._k0-] found
Submit result: 8I2cekczdhdA9I4MqyI1oCV._k0- has been confirmed
Track | CTDB Status
1 | (24/24) Accurately ripped
2 | (24/24) Accurately ripped
3 | (24/24) Accurately ripped
4 | (24/24) Accurately ripped
5 | (24/24) Accurately ripped
6 | (24/24) Accurately ripped


==== Log checksum 7C79FE31F3FA760B5C8E065D1916FAC959760666C9B7F98C77A94455729DE951 ====

[CUETools log; Date: 06.04.2021 20:30:44; Version: 2.1.4]
HDCD: peak extend: yes, transient filter: none, gain: -4,0dB..0,0dB
[CTDB TOCID: 8I2cekczdhdA9I4MqyI1oCV._k0-] found.
Track | CTDB Status
1 | (31/31) Accurately ripped
2 | (31/31) Accurately ripped
3 | (31/31) Accurately ripped
4 | (31/31) Accurately ripped
5 | (31/31) Accurately ripped
6 | (31/31) Accurately ripped
[AccurateRip ID: 00080941-002c1960-4b086606] found.
Track [ CRC | V2 ] Status
01 [ca48c10f|77abe27d] (19+27/46) Accurately ripped
02 [8a883aa8|d9de863c] (19+27/46) Accurately ripped
03 [b1a6d8f0|0b6c87ee] (19+28/47) Accurately ripped
04 [cd956f46|95a71975] (19+27/46) Accurately ripped
05 [ff93a6c8|25f09e66] (19+28/47) Accurately ripped
06 [7f9ad696|f4755c67] (18+28/46) Accurately ripped

Track Peak [ CRC32 ] [W/O NULL] [ LOG ]
– 97,2 [102C4544] [5F1E1608]
01 96,2 [A5504659] [68C698A1] CRC32
02 95,9 [FF63E536] [6D7D2942] CRC32
03 96,5 [864561D0] [D132E44B] CRC32
04 97,2 [CCD74F36] [E2BC04E7] CRC32
05 81,0 [5C7DA9BF] [86127D52] CRC32
06 96,4 [B9F44C42] [FAD36125] CRC32

Thanks to RRC

See also: