Tags
Language
Tags

Jean Michel Jarre - Oxygene 8 [Maxi-Single] (1997)

Posted By: gribovar
Jean Michel Jarre - Oxygene 8 [Maxi-Single] (1997)

Jean Michel Jarre - Oxygene 8 [Maxi-Single] (1997)
EAC Rip | FLAC (tracks+.cue+log) - 212 MB | MP3 CBR 320 kbps (LAME 3.93) - 73 MB | Covers - 28 MB
Genre: Techno, Trance | RAR 3% Rec. | Label: Epic (49K 78553)

Jean Michel Jarre "Oxygene 8", featuring remixes by Hani, The Sunday Club, Takkyu Ishino and the team of Dado & Salsotto.
Tracklist:
01. Oxygene 8 (Original Edit)
02. Oxygene 8 (Revisited Radio Edit)
03. Oxygene 8 (Dado FM Remix)
04. Oxygene 8 (Hani's Oxygene 101 Radio Edit)
05. Oxygene 8 (Sunday Club Radio Edit)
06. Oxygene 8 (Takkyu Ishino Radio Edit)
07. Oxygene 8 (Club Mix)

Total time: 30:20

Exact Audio Copy V1.0 beta 6 from 9. April 2015

EAC extraction logfile from 14. December 2016, 21:09

Jean-Michel Jarre / Oxygene 8

Used drive : PIONEER DVD-RW DVR-215 Adapter: 1 ID: 2

Read mode : Secure
Utilize accurate stream : Yes
Defeat audio cache : Yes
Make use of C2 pointers : No

Read offset correction : 48
Overread into Lead-In and Lead-Out : No
Fill up missing offset samples with silence : Yes
Delete leading and trailing silent blocks : No
Null samples used in CRC calculations : Yes
Used interface : Native Win32 interface for Win NT & 2000
Gap handling : Appended to previous track

Used output format : User Defined Encoder
Selected bitrate : 1024 kBit/s
Quality : High
Add ID3 tag : No
Command line compressor : C:\Program Files (x86)\Exact Audio Copy\FLAC\FLAC.EXE
Additional command line options : -6 -V -T "COMMENT=Ripped by RRC (NEW-TEAM org)" -T "ARTIST=%artist%" -T "TITLE=%title%" -T "ALBUM=%albumtitle%" -T "DATE=%year%" -T "TRACKNUMBER=%tracknr%" -T "GENRE=%genre%" -T "COMMENT=%comment%" -T "BAND=%albuminterpret%" -T "ALBUMARTIST=%albuminterpret%" -T "COMPOSER=%composer%" %haslyrics%–tag-from-file=LYRICS="%lyricsfile%"%haslyrics% -T "DISCNUMBER=%cdnumber%" -T "TOTALDISCS=%totalcds%" -T "TOTALTRACKS=%numtracks%" %hascover%–picture="%coverfile%"%hascover% %source% -o %dest%


TOC of the extracted CD

Track | Start | Length | Start sector | End sector
––––––––––––––––––––––––––––-
1 | 0:00.00 | 3:45.25 | 0 | 16899
2 | 3:45.25 | 3:22.50 | 16900 | 32099
3 | 7:08.00 | 3:44.67 | 32100 | 48966
4 | 10:52.67 | 3:46.73 | 48967 | 65989
5 | 14:39.65 | 4:19.47 | 65990 | 85461
6 | 18:59.37 | 4:52.00 | 85462 | 107361
7 | 23:51.37 | 6:29.10 | 107362 | 136546


Track 1

Filename G:\RRC's Rip\01-Oxygene 8 (original edit).wav

Pre-gap length 0:00:02.00

Peak level 100.0 %
Extraction speed 4.7 X
Track quality 100.0 %
Test CRC D866CD0D
Copy CRC D866CD0D
Accurately ripped (confidence 10) [A6B51916] (AR v2)
Copy OK

Track 2

Filename G:\RRC's Rip\02-Oxygene 8 (Revisited radio edit).wav

Pre-gap length 0:00:00.43

Peak level 97.9 %
Extraction speed 5.0 X
Track quality 100.0 %
Test CRC 26E14254
Copy CRC 26E14254
Accurately ripped (confidence 10) [6DF702E0] (AR v2)
Copy OK

Track 3

Filename G:\RRC's Rip\03-Oxygene 8 (Dado FM remix).wav

Pre-gap length 0:00:00.43

Peak level 100.0 %
Extraction speed 5.5 X
Track quality 100.0 %
Test CRC A5C9B449
Copy CRC A5C9B449
Accurately ripped (confidence 10) [F2F16414] (AR v2)
Copy OK

Track 4

Filename G:\RRC's Rip\04-Oxygene 8 (Hani's Oxygene 101 radio edit).wav

Pre-gap length 0:00:00.42

Peak level 100.0 %
Extraction speed 5.8 X
Track quality 100.0 %
Test CRC 9CFCE528
Copy CRC 9CFCE528
Accurately ripped (confidence 11) [B165317B] (AR v2)
Copy OK

Track 5

Filename G:\RRC's Rip\05-Oxygene 8 (Sunday club radio edit).wav

Pre-gap length 0:00:00.45

Peak level 97.9 %
Extraction speed 5.6 X
Track quality 99.9 %
Test CRC B426581C
Copy CRC B426581C
Accurately ripped (confidence 11) [72AB664D] (AR v2)
Copy OK

Track 6

Filename G:\RRC's Rip\06-Oxygene 8 (Takkyu Ishino radio edit).wav

Pre-gap length 0:00:00.45

Peak level 98.8 %
Extraction speed 6.7 X
Track quality 100.0 %
Test CRC FE592181
Copy CRC FE592181
Accurately ripped (confidence 10) [886606F9] (AR v2)
Copy OK

Track 7

Filename G:\RRC's Rip\07-Oxygene 8 (club mix).wav

Pre-gap length 0:00:00.42

Peak level 98.3 %
Extraction speed 6.7 X
Track quality 99.9 %
Test CRC 7327685B
Copy CRC 7327685B
Accurately ripped (confidence 10) [879E28BD] (AR v2)
Copy OK


All tracks accurately ripped

No errors occurred

End of status report

–– CUETools DB Plugin V2.1.6

[CTDB TOCID: cNdpRwFA_TXPqQBu2x7MLm0cqLQ-] found
Submit result: cNdpRwFA_TXPqQBu2x7MLm0cqLQ- has been confirmed
Track | CTDB Status
1 | (11/11) Accurately ripped
2 | (11/11) Accurately ripped
3 | (11/11) Accurately ripped
4 | (11/11) Accurately ripped
5 | (11/11) Accurately ripped
6 | (11/11) Accurately ripped
7 | (11/11) Accurately ripped


==== Log checksum 32E61819FD4F7F4166B087739390CACF5E9DB4AC13767F377CA8C0ECE256DCA7 ====

[CUETools log; Date: 05.04.2021 19:54:20; Version: 2.1.4]
[CTDB TOCID: cNdpRwFA_TXPqQBu2x7MLm0cqLQ-] found.
Track | CTDB Status
1 | (30/30) Accurately ripped
2 | (30/30) Accurately ripped
3 | (30/30) Accurately ripped
4 | (30/30) Accurately ripped
5 | (30/30) Accurately ripped
6 | (30/30) Accurately ripped
7 | (30/30) Accurately ripped
[AccurateRip ID: 00078710-002df7f9-46071c07] found.
Track [ CRC | V2 ] Status
01 [fd4cbba3|a6b51916] (06+11/17) Accurately ripped
02 [af064863|6df702e0] (07+11/18) Accurately ripped
03 [d16912fa|f2f16414] (07+12/19) Accurately ripped
04 [e991faac|b165317b] (07+12/19) Accurately ripped
05 [db10dc18|72ab664d] (07+12/19) Accurately ripped
06 [301284fe|886606f9] (07+11/18) Accurately ripped
07 [74b3ce5b|879e28bd] (07+11/18) Accurately ripped

Track Peak [ CRC32 ] [W/O NULL] [ LOG ]
– 99,9 [8C8077F4] [54D474ED]
01 99,9 [D866CD0D] [44C87D57] CRC32
02 97,9 [26E14254] [58A49136] CRC32
03 99,9 [A5C9B449] [D472C7C8] CRC32
04 99,9 [9CFCE528] [B38E40C5] CRC32
05 97,9 [B426581C] [E8072B48] CRC32
06 98,8 [FE592181] [D5BBCB1F] CRC32
07 98,3 [7327685B] [52FD8DBF] CRC32

Thanks to RRC

See also: