Tags
Language
Tags

Jeanne Lamon, Tafelmusik Baroque Orchestra - D.Scarlatti: Salve Regina; Vivaldi: Stabat Mater (2003)

Posted By: ArlegZ
Jeanne Lamon, Tafelmusik Baroque Orchestra - D.Scarlatti: Salve Regina; Vivaldi: Stabat Mater (2003)

Jeanne Lamon, Tafelmusik Baroque Orchestra - D.Scarlatti: Salve Regina; Vivaldi: Stabat Mater (2003)
EAC | FLAC | Image (Cue & Log) ~ 286 Mb | Total time: 57:37 | Scans included
Classical | Label: Analekta | # FL 2 3171 | Recorded: 2003

Quebec contralto Marie-Nicole Lemieux scored a top rating on her earlier Analekta disc of Handel Italian cantatas, and in that review I expressed a desire for more recordings from this sensational young singer. If you enjoyed the Handel program (and if you don't have it, get it), you'll be just as happy with this new disc that combines two famous Baroque solo-vocal works with some engaging, relentlessly upbeat orchestral selections from the same period. Lemieux continues to impress with her warm, true-contralto tone, fluid legatos, canny phrasing, and total command of the technical aspects of these justifiably popular yet challenging works. Her somewhat darker, rounder vocal quality and relatively slower tempos contrast nicely with countertenor Andreas Scholl's bright, vibrant, and generally faster version of the Stabat Mater. While the faster tempos benefit Scholl in terms of breath frequency and phrase length, Lemieux artfully incorporates the breathing points in her more drawn-out lines–in the Stabat Mater's central Largo, for instance–to enhance the phrasing so that the breaks seem part of the music's natural flow. This is singing of the highest professional and artistic standard, and the spirit and enthusiasm that informs every note keeps us happily involved all the while Lemieux holds center stage.
Not that the orchestra selections are the slightest bit shabby! The opening Vivaldi sinfonia is a sheer delight, its catchy tunes and infectious rhythms reminding us why this composer continues to be such an audience pleaser, and Tafelmusik's splendid ensemble interplay and impeccable precision leave no doubt that we're hearing Baroque instrumental music at its best. The sound is absolutely ideal, with especially keen definition to the strings and natural, unadulterated treatment of the voice. A must!
–David Vernier

Performer:
Marie-Nicole Lemieux, contralto
Tafelmusik Baroque Orchestra
Jeanne Lamon, musical director

Track List:
Antonio Vivaldi (1678-1741)
Symphonie pour cordes en sol majeur RV149
01. I. Allegro molto
02. II. Andante
03. III. Allegro
Domenico Scarlatti (1685-1757)
Salve Regina
04. Salve Regina
05. Ad te clamarus (Andante) / Exsules filii Evae (Grave)
06. Ad te suspiramus (Adagio)
07. Eja Ergo (Andante)
08. Nobis post hoc exsilium ostende
09. O clemens (Adagio)
10. Amen (Allegro)
Charles Avison (1709-1770)
Concerto no 7 en sol mineur d'après D. Scarlatti
11. I. Adagio
12. II. Allegro
13. III. Adagio
14. IV. Allegro affettuoso
Antonio Vivaldi
Stabat Mater in F Minor
15. Stabat Mater dolorosa (Largo)
16. Cujus animam (Adagio)
17. O quam tristis (Andante)
18. Quis est homo (Largo)
19. Quis non posset (Adagio)
20. Pro peccatis suae gentis (Andante)
21. Eja mater, fons amoris (Largo)
22. Fac ut ardeat (Lento)
23. Amen (Allegro)
Concerto pour cordes en la majeur RV158
24. I. Allegro molto
25. II. Andante molto
26. III. Allegro


Exact Audio Copy V1.3 from 2. September 2016

EAC extraction logfile from 11. November 2019, 14:12

Tafelmusik Baroque Orchestra / Vivaldi - Stabat Mater

Used drive : HL-DT-STBD-RE WH16NS40 Adapter: 1 ID: 0

Read mode : Secure
Utilize accurate stream : Yes
Defeat audio cache : Yes
Make use of C2 pointers : No

Read offset correction : 6
Overread into Lead-In and Lead-Out : No
Fill up missing offset samples with silence : Yes
Delete leading and trailing silent blocks : No
Null samples used in CRC calculations : Yes
Used interface : Native Win32 interface for Win NT & 2000

Used output format : User Defined Encoder
Selected bitrate : 1024 kBit/s
Quality : High
Add ID3 tag : No
Command line compressor : C:\Program Files (x86)\Exact Audio Copy\FLAC\FLAC.EXE
Additional command line options : -6 -V -T "ARTIST=%artist%" -T "TITLE=%title%" -T "ALBUM=%albumtitle%" -T "DATE=%year%" -T "TRACKNUMBER=%tracknr%" -T "GENRE=%genre%" -T "COMMENT=%comment%" -T "BAND=%albuminterpret%" -T "ALBUMARTIST=%albuminterpret%" -T "COMPOSER=%composer%" %haslyrics%–tag-from-file=LYRICS="%lyricsfile%"%haslyrics% -T "DISCNUMBER=%cdnumber%" -T "TOTALDISCS=%totalcds%" -T "TOTALTRACKS=%numtracks%" %hascover%–picture="%coverfile%"%hascover% %source% -o %dest%


TOC of the extracted CD

Track | Start | Length | Start sector | End sector
––––––––––––––––––––––––––––-
1 | 0:00.00 | 1:52.37 | 0 | 8436
2 | 1:52.37 | 1:43.73 | 8437 | 16234
3 | 3:36.35 | 2:36.27 | 16235 | 27961
4 | 6:12.62 | 2:09.60 | 27962 | 37696
5 | 8:22.47 | 1:48.35 | 37697 | 45831
6 | 10:11.07 | 1:18.45 | 45832 | 51726
7 | 11:29.52 | 1:32.12 | 51727 | 58638
8 | 13:01.64 | 2:32.73 | 58639 | 70111
9 | 15:34.62 | 2:28.30 | 70112 | 81241
10 | 18:03.17 | 1:29.15 | 81242 | 87931
11 | 19:32.32 | 1:59.00 | 87932 | 96856
12 | 21:31.32 | 2:50.03 | 96857 | 109609
13 | 24:21.35 | 2:18.62 | 109610 | 120021
14 | 26:40.22 | 3:25.38 | 120022 | 135434
15 | 30:05.60 | 3:31.55 | 135435 | 151314
16 | 33:37.40 | 2:04.35 | 151315 | 160649
17 | 35:42.00 | 1:45.34 | 160650 | 168558
18 | 37:27.34 | 3:27.11 | 168559 | 184094
19 | 40:54.45 | 2:00.70 | 184095 | 193164
20 | 42:55.40 | 1:43.12 | 193165 | 200901
21 | 44:38.52 | 3:01.63 | 200902 | 214539
22 | 47:40.40 | 1:23.60 | 214540 | 220824
23 | 49:04.25 | 1:01.40 | 220825 | 225439
24 | 50:05.65 | 2:23.15 | 225440 | 236179
25 | 52:29.05 | 2:03.35 | 236180 | 245439
26 | 54:32.40 | 3:02.69 | 245440 | 259158


Range status and errors

Selected range

Filename C:\Users\Grant\Desktop\Tafelmusik Baroque Orchestra - Vivaldi - Stabat Mater.wav

Peak level 97.3 %
Extraction speed 7.4 X
Range quality 99.9 %
Test CRC 58555B3D
Copy CRC 58555B3D
Copy OK

No errors occurred


AccurateRip summary

Track 1 accurately ripped (confidence 9) [4DB3C33B] (AR v2)
Track 2 accurately ripped (confidence 9) [07422450] (AR v2)
Track 3 accurately ripped (confidence 9) [77EE8A7F] (AR v2)
Track 4 accurately ripped (confidence 9) [8B261863] (AR v2)
Track 5 accurately ripped (confidence 9) [8F163F0E] (AR v2)
Track 6 accurately ripped (confidence 9) [959FA231] (AR v2)
Track 7 accurately ripped (confidence 9) [94CAD300] (AR v2)
Track 8 accurately ripped (confidence 9) [80D6172A] (AR v2)
Track 9 accurately ripped (confidence 9) [69E9CDC0] (AR v2)
Track 10 accurately ripped (confidence 9) [0EF4D842] (AR v2)
Track 11 accurately ripped (confidence 9) [E95EB9AA] (AR v2)
Track 12 accurately ripped (confidence 9) [CCA53725] (AR v2)
Track 13 accurately ripped (confidence 9) [630F94ED] (AR v2)
Track 14 accurately ripped (confidence 9) [53FD3819] (AR v2)
Track 15 accurately ripped (confidence 9) [29B55502] (AR v2)
Track 16 accurately ripped (confidence 9) [A8733D40] (AR v2)
Track 17 accurately ripped (confidence 9) [EF7C3BAB] (AR v2)
Track 18 accurately ripped (confidence 9) [210C2263] (AR v2)
Track 19 accurately ripped (confidence 9) [F9B55D9E] (AR v2)
Track 20 accurately ripped (confidence 9) [925E7D1C] (AR v2)
Track 21 accurately ripped (confidence 9) [2279BE66] (AR v2)
Track 22 accurately ripped (confidence 9) [1222B061] (AR v2)
Track 23 accurately ripped (confidence 9) [46624F8D] (AR v2)
Track 24 accurately ripped (confidence 9) [8C027EF5] (AR v2)
Track 25 accurately ripped (confidence 9) [DF2535FF] (AR v2)
Track 26 accurately ripped (confidence 9) [14B72B9B] (AR v2)

All tracks accurately ripped

End of status report

–– CUETools DB Plugin V2.1.6

[CTDB TOCID: dyVtTe.tiWKzGiKIzUCGwWP89yE-] found
Submit result: dyVtTe.tiWKzGiKIzUCGwWP89yE- has been confirmed
Track | CTDB Status
1 | (7/7) Accurately ripped
2 | (7/7) Accurately ripped
3 | (7/7) Accurately ripped
4 | (7/7) Accurately ripped
5 | (7/7) Accurately ripped
6 | (7/7) Accurately ripped
7 | (7/7) Accurately ripped
8 | (7/7) Accurately ripped
9 | (7/7) Accurately ripped
10 | (7/7) Accurately ripped
11 | (7/7) Accurately ripped
12 | (7/7) Accurately ripped
13 | (7/7) Accurately ripped
14 | (7/7) Accurately ripped
15 | (7/7) Accurately ripped
16 | (7/7) Accurately ripped
17 | (7/7) Accurately ripped
18 | (7/7) Accurately ripped
19 | (7/7) Accurately ripped
20 | (7/7) Accurately ripped
21 | (7/7) Accurately ripped
22 | (7/7) Accurately ripped
23 | (7/7) Accurately ripped
24 | (7/7) Accurately ripped
25 | (7/7) Accurately ripped
26 | (7/7) Accurately ripped


==== Log checksum 20FCECA4E302A128FB401581B4384CC5B36335606304B75A4D39F451D9902E0C ====

Jeanne Lamon, Tafelmusik Baroque Orchestra - D.Scarlatti: Salve Regina; Vivaldi: Stabat Mater (2003)

Thanks to the original releaser