Tags
Language
Tags

Jeff Beck - Truth (1968) [Vinyl Rip 16/44 & mp3-320 + DVD] Re-up

Posted By: v3122
Jeff Beck - Truth (1968) [Vinyl Rip 16/44 & mp3-320 + DVD] Re-up

Jeff Beck - Truth (1968)
Vinyl Rip 16/44 | Flac(Image + Cue) > 244 Mb
MP3 CBR 320Kbps > 98 Mb | Artwork(jpg) > 1.11 Mb
DVD-5: NTSC 4:3 (720x480) VBR | LPCM, 2 ch, 24 bit, 96 kHz > 1.46 Gb
2014 | Friday Music, FRM-26413 | Blues Rock, Psychedelic Rock, Prog Rock

Despite being the premiere of heavy metal, Jeff Beck's Truth has never quite carried its reputation the way the early albums by Led Zeppelin did, or even Cream's two most popular LPs, mostly as a result of the erratic nature of the guitarist's subsequent work. Time has muted some of its daring, radical nature, elements of which were appropriated by practically every metal band (and most arena rock bands) that followed. Truth was almost as groundbreaking and influential a record as the first Beatles, Rolling Stones, or Who albums. Its attributes weren't all new – Cream and Jimi Hendrix had been moving in similar directions – but the combination was: the wailing, heart-stoppingly dramatic vocalizing by Rod Stewart, the thunderous rhythm section of Ron Wood's bass and Mickey Waller's drums, and Beck's blistering lead guitar, which sounds like his amp is turned up to 13 and ready to short out. Beck opens the proceedings in a strikingly bold manner, using his old Yardbirds hit "Shapes of Things" as a jumping-off point, deliberately rebuilding the song from the ground up so it sounds closer to Howlin' Wolf. There are lots of unexpected moments on this record: a bone-pounding version of Willie Dixon's "You Shook Me"; a version of Jerome Kern's "Ol' Man River" done as a slow electric blues; a brief plunge into folk territory with a solo acoustic guitar version of "Greensleeves" (which was intended as filler but audiences loved); the progressive blues of "Beck's Bolero"; the extended live "Blues Deluxe"; and "I Ain't Superstitious," a blazing reworking of another Willie Dixon song. It was a triumph – a number 15 album in America, astoundingly good for a band that had been utterly unknown in the U.S. just six months earlier – and a very improbable success.

by Bruce Eder, allmusic
Jeff Beck - Truth (1968) [Vinyl Rip 16/44 & mp3-320 + DVD] Re-up

Jeff Beck - Truth (1968):

Tracklist:

Side 1

A1 - Shapes Of Things
Written-By - Samwell-Smith
A2 - Let Me Love You
Tambourine - Micky Waller / Written-By - Rod
A3 - Morning Dew
Written-By - Dobson, Rose
A4 - You Shook Me
Written-By - Dixon
A5 - Ol' Man River
Written-By - Kern

Side 2

B1 - Greensleeves
Arranged By - Rod / Written-By - Trad.
B2 - Rock My Plimsoul
Written-By - Rod
B3 - Beck's Bolero
Written-By - Page
B4 - Blues De Luxe
Written-By - Rod
B5 - I Ain't Superstitious
Written-By - Dixon

foobar2000 1.2.9 / Dynamic Range Meter 1.1.1
log date: 2018-08-14 17:33:56

––––––––––––––––––––––––––––––––––––––––
Analyzed: Jeff Beck / Truth
––––––––––––––––––––––––––––––––––––––––

DR Peak RMS Duration Track
––––––––––––––––––––––––––––––––––––––––
DR12 -0.23 dB -13.95 dB 3:21 01-Shapes Of Things
DR11 -1.67 dB -16.25 dB 4:44 02-Let Me Love You
DR11 -1.78 dB -15.48 dB 4:43 03-Morning Dew
DR10 -1.49 dB -14.83 dB 2:32 04-You Shook Me
DR12 -3.19 dB -19.48 dB 4:00 05-Ol' Man River
DR12 -7.13 dB -23.66 dB 1:50 06-Greensleeves
DR12 -1.71 dB -15.36 dB 4:15 07-Rock My Plimsoul
DR10 -2.29 dB -15.01 dB 2:55 08-Beck's Bolero
DR12 -3.48 dB -18.34 dB 7:35 09-Blues De Luxe
DR12 -0.25 dB -14.77 dB 4:55 10-I Ain't Superstitious
––––––––––––––––––––––––––––––––––––––––

Number of tracks: 10
Official DR value: DR11

Samplerate: 44100 Hz
Channels: 2
Bits per sample: 16
Bitrate: 796 kbps
Codec: FLAC
================================================================================



Title: Jeff Beck 1968 - Truth - DVD
Size: 1.35 Gb ( 1 420 318,00 KBytes ) - DVD-5
Enabled regions: 1, 2, 3, 4, 5, 6, 7, 8

VTS_01 :
Play Length: 00:40:48
Video: NTSC 4:3 (720x480) VBR
Audio:
Not specified (LinearPCM, 2 ch)



Original ripper: ?
Original format: 24/96
Vinyl Condition: NM
Cleaning:
Direct Drive Turntable: Technics SL 1210 MKII
Cartridge: Ortofon Cadenza Black M/C
Amplifier: Cambridge Audio AZUR640P M/C
ADC: Benchmark ADC1
Postprocessing: de-clicking in Adobe Audition

Downsampled to 16/44

Jeff Beck - Truth (1968) [Vinyl Rip 16/44 & mp3-320 + DVD] Re-up

Jeff Beck - Truth (1968) [Vinyl Rip 16/44 & mp3-320 + DVD] Re-up

Jeff Beck - Truth (1968) [Vinyl Rip 16/44 & mp3-320 + DVD] Re-up

Jeff Beck in my Blog

Download Jeff Beck - Truth (1968):