Tags
Language
Tags

Jeff Palmer / John Abercrombie / David Liebman / Adam Nussbaum - Abracadabra (1990) {Soul Note}

Posted By: tiburon
Jeff Palmer / John Abercrombie / David Liebman / Adam Nussbaum - Abracadabra (1990) {Soul Note}

Jeff Palmer / John Abercrombie / David Liebman / Adam Nussbaum - Abracadabra (1990) {Soul Note}
EAC 1.0b1 | FLAC Image | Cue+Log | Full Scans 300dpi | 312MB + 5% Recovery
MP3 CBR 320 Kbps | 139MB + 5% Recovery
Genre: Jazz, Fusion

Sound explorations are emphasized throughout this release with Jeff Palmer's atmospheric organ, the varied tones of John Abercrombie's guitar synthesizer, David Liebman's very passionate soprano and Adam Nussbaum's drums interacting over a variety of patterns. All of the compositions are group originals with five by Palmer and one apiece from the other three musicians. Whether it be the funky beat of "Hip Slick," the free jamming of "Mr. Adam," the spacey title cut or the almost New Age feel of "Mr. John," the themes are less important than the setting of moods and the advanced improvising.
Track List
01. Hip Slick 7:56
02. Mr. Adam 3:01
03. Tango Dream 8:00
04. Mr. John 4:41
05. Abracadabra 5:10
06. The Unknown Known 6:33
07. Mr. Dave 2:46
08. Girl Swirl 8:38
09. On Fire 12:41

musicians
Jeff Palmer - Hammond B3, bass pedals
John Abercrombie - guitar synthesizer
David Liebman - soprano saxophone
Adam Nussbaum - drums

Produced by Paul Bley


Exact Audio Copy V1.0 beta 1 from 15. November 2010

EAC extraction logfile from 19. January 2012, 21:54

Jeff Palmer / Abracadabra

Used drive : TSSTcorpDVD+-RW TS-L532B Adapter: 1 ID: 0

Read mode : Secure
Utilize accurate stream : Yes
Defeat audio cache : Yes
Make use of C2 pointers : No

Read offset correction : 704
Overread into Lead-In and Lead-Out : No
Fill up missing offset samples with silence : Yes
Delete leading and trailing silent blocks : No
Null samples used in CRC calculations : Yes
Used interface : Native Win32 interface for Win NT & 2000

Used output format : Internal WAV Routines
Sample format : 44.100 Hz; 16 Bit; Stereo


TOC of the extracted CD

Track | Start | Length | Start sector | End sector
––––––––––––––––––––––––––––-
1 | 0:00.33 | 7:59.00 | 33 | 35957
2 | 7:59.33 | 3:05.00 | 35958 | 49832
3 | 11:04.33 | 8:05.52 | 49833 | 86259
4 | 19:10.10 | 4:44.23 | 86260 | 107582
5 | 23:54.33 | 5:13.00 | 107583 | 131057
6 | 29:07.33 | 6:36.00 | 131058 | 160757
7 | 35:43.33 | 2:49.50 | 160758 | 173482
8 | 38:33.08 | 8:44.25 | 173483 | 212807
9 | 47:17.33 | 12:47.00 | 212808 | 270332


Range status and errors

Selected range

Filename C:\Documents and Settings\VB\My Documents\BARIN99\Jeff Palmer - Abracadabra\Jeff Palmer - Abracadabra.wav

Peak level 100.0 %
Extraction speed 0.6 X
Range quality 100.0 %
Copy CRC E4C8E89A
Copy OK

No errors occurred


AccurateRip summary

Track 1 cannot be verified as accurate (confidence 1) [55F2A1B7], AccurateRip returned [033C94D8]
Track 2 cannot be verified as accurate (confidence 1) [9D96FC83], AccurateRip returned [E23CC6C3]
Track 3 cannot be verified as accurate (confidence 1) [8F5A2FEE], AccurateRip returned [83C4FB05]
Track 4 cannot be verified as accurate (confidence 1) [D89EF17E], AccurateRip returned [825E74B1]
Track 5 cannot be verified as accurate (confidence 1) [4A348DE4], AccurateRip returned [9A47EE05]
Track 6 cannot be verified as accurate (confidence 1) [B0BBB3CC], AccurateRip returned [F6640304]
Track 7 cannot be verified as accurate (confidence 1) [4A392B96], AccurateRip returned [A0DF9984]
Track 8 cannot be verified as accurate (confidence 1) [8E570F2E], AccurateRip returned [B561B9D8]
Track 9 cannot be verified as accurate (confidence 1) [8EC267F8], AccurateRip returned [6A87450F]

No tracks could be verified as accurate
You may have a different pressing from the one(s) in the database

End of status report


––––––––––––––––––––––––––––––––––––––––
Analyzed: Jeff Palmer / Abracadabra
––––––––––––––––––––––––––––––––––––––––

DR Peak RMS Duration Track
––––––––––––––––––––––––––––––––––––––––
DR15 -0.62 dB -19.57 dB 7:59 01-Hip Slick
DR15 -0.79 dB -19.36 dB 3:05 02-Mr. Adam
DR18 0.00 dB -23.51 dB 8:06 03-Tango Dream
DR15 -1.48 dB -22.41 dB 4:44 04-Mr. John
DR15 -0.68 dB -22.21 dB 5:13 05-Abracadabra
DR17 0.00 dB -21.09 dB 6:36 06-The Unkown Known
DR14 -0.39 dB -20.72 dB 2:50 07-Mr. Dave
DR15 0.00 dB -19.76 dB 8:44 08-Girl Swirl
DR15 0.00 dB -19.84 dB 12:47 09-On Fire
––––––––––––––––––––––––––––––––––––––––

Number of tracks: 9
Official DR value: DR15

Samplerate: 44100 Hz
Channels: 2
Bits per sample: 16
Bitrate: 723 kbps
Codec: FLAC
================================================================================

Jeff Palmer / John Abercrombie / David Liebman / Adam Nussbaum - Abracadabra (1990) {Soul Note}
Jeff Palmer / John Abercrombie / David Liebman / Adam Nussbaum - Abracadabra (1990) {Soul Note}
Jeff Palmer / John Abercrombie / David Liebman / Adam Nussbaum - Abracadabra (1990) {Soul Note}


Thanks to the original ripper